Кинопанорама: Тонино Гуэрра. День рождения в Москве (Марина Пертегас) [1990, документальный, творческая биография, DVB]


Статистика раздачи [Обновить пиров]
Размер:  1.1 GB   |    Зарегистрирован:  8 месяцев 23 дня   |    Скачан:  0 раз

Полного источника не было: Никогда

Личеров:  58  [  0 KB/s  ]   Подробная статистика пиров
 
   
 
 
 

[Цитировать]

Тонино Гуэрра
Кинопанорама: День рождения в Москве- Год выпуска: 1990
Страна: СССР
Жанр: документальный, творческая биография
Продолжительность: 00:59:41
Перевод: Не требуется
Русские субтитры: нет
Режиссер: Марина Пертегас
Описание: Ведущий Виктор Мережко. Вклад Тонино Гуэрры в киноискусство по-настоящему космический. Подарив свои лучшие слова итальянскому неореализму, Тонино активно сотрудничал с крупными художниками из самых разных стран. Кажется, его сценарии вдохновили самое большое количество выдающихся режиссеров. С Россией мастера связывала не только любовь к Пушкину и русская жена — Элеонора Яблочкина, спутница жизни. Гуэрра написал для Андрея Тарковского сценарий фильма "Ностальгия". Он поддерживал тесную связь с Сергеем Параджановым, Андреем Хржановским, Владимиром Наумовым. В России он бывал множество раз, в том числе и в 1990 году – в день своего 70-летия.
Доп. информация: Собственная запись со спутника (канал "Ностальгия", пакет НТВ+). В отличие от имеющегося на трекере TVRip, в данной раздаче несжатый цифровой поток с большим размером кадра и лучшим качеством.
Сравнение скриншотов
Качество: DVB
Формат: MPG
Видео кодек: MPEG2
Аудио кодек: MP2
Видео: MPEG Video 2, 704x576@768x576 (4:3), 25 fps, ~2390 kbps avg
Аудио: 48 kHz, MPEG Audio 2, 2 ch, ~192.00 kbps avg

MediaInfo

Полное имя                               : H:\My Torrents\[apreder]Tonino_Guerra_A_Moscow_Birthday(1990)DVB.mpg
Формат : MPEG-PS
Размер файла : 1,10 Гбайт
Продолжительность : 59 м.
Режим общего битрейта : Переменный
Общий поток : 2635 Кбит/сек
Видео
Идентификатор : 224 (0xE0)
Формат : MPEG Video
Версия формата : Version 2
Профиль формата : Main@Main
Параметр BVOP формата : Да
Параметр матрицы формата : Выборочная
Параметр GOP формата : M=3, N=24
Продолжительность : 59 м.
Вид битрейта : Переменный
Битрейт : 2390 Кбит/сек
Ширина : 704 пикселя
Высота : 576 пикселей
Соотношение сторон : 4:3
Частота кадров : 25,000 кадров/сек
Стандарт вещания : PAL
Цветовое пространство : YUV
Субдискретизация насыщенности : 4:2:0
Битовая глубина : 8 бит
Тип развёртки : Чересстрочная
Порядок развёртки : Верхнее поле первое
Метод сжатия : С потерями
Бит/(Пиксели*Кадры) : 0.236
Размер потока : 1021 Мбайт (91%)
Аудио
Идентификатор : 192 (0xC0)
Формат : MPEG Audio
Версия формата : Version 1
Профиль формата : Layer 2
Продолжительность : 59 м.
Вид битрейта : Постоянный
Битрейт : 192 Кбит/сек
Каналы : 2 канала
Частота : 48,0 КГц
Метод сжатия : С потерями
Размер потока : 82,0 Мбайт (7%)

Скриншоты

Скриншоты анаморфированные

-402/384√
[teatrix.ru].t16555.torrent 
Торрент: Зарегистрирован [ 2016-03-16 12:31 ] · 497A4917F704F5E960983436A1642D7A8E978C6A

Скачать .torrent

Скачать

11 KB

Статус: проверено
Скачан: 0 раз
Размер: 1.1 GB
terms.php



Показать сообщения:    

Текущее время: 08-Дек 17:22

Часовой пояс: UTC + 3


Вы не можете начинать темы
Вы не можете отвечать на сообщения
Вы не можете редактировать свои сообщения
Вы не можете удалять свои сообщения
Вы не можете голосовать в опросах
Вы не можете прикреплять файлы к сообщениям
Вы можете скачивать файлы