Брэд Питт – голливудский красавчик / Brad Pitt – Hollywood Hunk (Труди Кек / Trudi Keck) [1999, документальный, творческая биография, DVB] MVO (СПб, 5-й канал)


Статистика раздачи [Обновить пиров]
Размер:  948 MB   |    Зарегистрирован:  8 месяцев 22 дня   |    Скачан:  0 раз

Полного источника не было: Никогда

Личеров:  33  [  0 KB/s  ]   Подробная статистика пиров
 
   
 
 
 

[Цитировать]

Брэд Питт – голливудский красавчик
Brad Pitt – Hollywood Hunk- Год выпуска: 1999
Страна: США
Жанр: документальный, творческая биография
Продолжительность: 00:46:18
Перевод: Профессиональный (многоголосый, закадровый) (отдел дублирования ТРК "Петербург. Пятый канал")
Русские субтитры: нет
Режиссер: Труди Кек / Trudi Keck
Описание: Брэд Питт – актер, который не оставляет равнодушным ни одну женщину. Звезда многих успешных фильмов. Никто не думал, что простой паренек Уильям Брэдли Питт, родившийся в Оклахоме в 1963 году, в один прекрасный день станет одним из самых востребованных актеров Голливуда и встанет в один рад с Харрисоном Фордом, Арнольдом Шварценеггером, Брюсом Уиллисом и другими звездами. Однако, Брэд был уверен в этом с самого начала. Об этом можно узнать из многочисленных биографий и лично из уст самого Питта. Брэд настолько знаменит, что количество интернет-сайтов, посвященных ему, не поддается исчислению. Путь Брэда на большой экран был тернист. Но упорный труд сметает любые преграды. Он не был сыном известного актера или продюсера. Всего, чего он достиг, он добился сам, что по сегодняшним меркам – удивительное достижение. (из предисловия к фильму)
Доп. информация: Собственная запись со спутника ("СПб, 5-й канал", эфир 31.10.2008, пакет НТВ+).
Качество: DVB
Формат: MPG
Видео кодек: MPEG2
Аудио кодек: MP2
Видео: MPEG Video 2, 704x576@768x576 (4:3), 25 fps, ~2614 kbps avg
Аудио: 48 kHz, MPEG Audio 2, 2 ch, ~192.00 kbps avg

MediaInfo

Полное имя                               : H:\My Torrents\[apreder]Brad_Pitt_Hollywood_Hunk(1999)DVB.mpg
Формат : MPEG-PS
Размер файла : 948 Мбайт
Продолжительность : 46 м.
Режим общего битрейта : Переменный
Общий поток : 2863 Кбит/сек
Видео
Идентификатор : 224 (0xE0)
Формат : MPEG Video
Версия формата : Version 2
Профиль формата : Main@Main
Параметр BVOP формата : Да
Параметр матрицы формата : Выборочная
Параметр GOP формата : M=3, N=24
Продолжительность : 46 м.
Вид битрейта : Переменный
Битрейт : 2614 Кбит/сек
Ширина : 704 пикселя
Высота : 576 пикселей
Соотношение сторон : 4:3
Частота кадров : 25,000 кадров/сек
Стандарт вещания : PAL
Цветовое пространство : YUV
Субдискретизация насыщенности : 4:2:0
Битовая глубина : 8 бит
Тип развёртки : Чересстрочная
Порядок развёртки : Верхнее поле первое
Метод сжатия : С потерями
Бит/(Пиксели*Кадры) : 0.258
Размер потока : 866 Мбайт (91%)
Аудио
Идентификатор : 192 (0xC0)
Формат : MPEG Audio
Версия формата : Version 1
Профиль формата : Layer 2
Продолжительность : 46 м.
Вид битрейта : Постоянный
Битрейт : 192 Кбит/сек
Каналы : 2 канала
Частота : 48,0 КГц
Метод сжатия : С потерями
Размер потока : 63,6 Мбайт (7%)

Скриншоты


Скриншоты анаморфированные


-407/389√
[teatrix.ru].t16562.torrent 
Торрент: Зарегистрирован [ 2016-03-16 12:30 ] · E6E6EE3ED4AE8136E6F47E0CD07151DE51895F78

Скачать .torrent

Скачать

19 KB

Статус: проверено
Скачан: 0 раз
Размер: 948 MB
terms.php



Показать сообщения:    

Текущее время: 08-Дек 10:57

Часовой пояс: UTC + 3


Вы не можете начинать темы
Вы не можете отвечать на сообщения
Вы не можете редактировать свои сообщения
Вы не можете удалять свои сообщения
Вы не можете голосовать в опросах
Вы не можете прикреплять файлы к сообщениям
Вы можете скачивать файлы