Кинопанорама от 1 мая 1963 года (фрагменты) (Ксения Маринина) [1963, телепередача, DVB]


Статистика раздачи [Обновить пиров]
Размер:  562 MB   |    Зарегистрирован:  8 месяцев 22 дня   |    Скачан:  0 раз

Полного источника не было: Никогда

 
   
 
 
 

[Цитировать]

Кинопанорама от 1 мая 1963 года
(фрагменты)- Год выпуска: 1963
Страна: СССР
Жанр: телепередача
Продолжительность: 00:40:17
Перевод: Не требуется
Русские субтитры: нет
Режиссер: Ксения Маринина
В ролях: Михаил Жаров, Тенгиз Абуладзе, Михаил Пуговкин, Жанна Болотова, Валентина Телегина, Владимир Гусев, Всеволод Сафонов, Леонид Афанасьев, Олег Анофриев, Юрий Яковлев, Олег Табаков
Описание: Одна из самых любимых передач прошлого, на советском телевидении мало было таких программ, которые притягивали зрителя и не вызывали шквал ядовитой критики после ее окончания. Безусловно, интерес к ней был вызван тем, что она являлась путеводителем в мире большого кино – единственным путеводителем на телевидении, а, поскольку в стране фильмов снималось много, а по ТВ их показывали мало, походы в кинотеатр были излюбленным развлечением и времяпровождением граждан. Сейчас даже представить трудно – какие сумасшедшие очереди стояли в билетных кассах на премьерных показах новых фильмов, о которых уже заранее было известно, что они не могут не понравиться. И известно – как раз из "Кинопанорамы".
Программа позиционировалась как тележурнал, объединяя несколько сюжетов о кино. Разрабатывали ее редакторы М. Сперанская, Н. Карцева, К. Маринина и главный редактор киноредакции Центральной студии телевидения С.А. Кузнецов; разработчики понимали, что объединять сюжеты должен один ведущий, человек знающий и любящий кино, умеющий анализировать и брать интервью, давать свои, авторские, комментарии, хороший рассказчик. И желательно – узнаваемый. Первым ведущим стал Зиновий Герд, что сразу же принесло передаче популярность. 21 октября 1962 года страна познакомилось с программой, которая просуществует 33 года. До начала 1970-х передача выходила в прямом эфире. (Вокруг ТВ)
Вам предлагаются фрагменты шестого полугодового выпуска "Кинопанорамы" от 1 мая 1963 года – короткие интервью с участниками, рассказывающими о своих последних киноработах.
Доп. информация: Собственная запись со спутника (канал "Ностальгия", пакет НТВ+). В отличие от имеющегося на трекере SATRip, в данной раздаче несжатый цифровой поток с большим размером кадра и более четким изображением.
Сравнение скриншотов
Качество: DVB
Формат: MPG
Видео кодек: MPEG2
Аудио кодек: MP2
Видео: MPEG Video 2, 704x576@768x576 (4:3), 25 fps, ~1718 kbps avg
Аудио: 48 kHz, MPEG Audio 2, 2 ch, ~192.00 kbps avg

MediaInfo

Полное имя                               : H:\My Torrents\[apreder]Kinopanorama(01.05.1963)DVB.mpg
Формат : MPEG-PS
Размер файла : 562 Мбайт
Продолжительность : 40 м.
Режим общего битрейта : Переменный
Общий поток : 1949 Кбит/сек
Видео
Идентификатор : 224 (0xE0)
Формат : MPEG Video
Версия формата : Version 2
Профиль формата : Main@Main
Параметр BVOP формата : Да
Параметр матрицы формата : Выборочная
Продолжительность : 40 м.
Вид битрейта : Переменный
Битрейт : 1718 Кбит/сек
Ширина : 704 пикселя
Высота : 576 пикселей
Соотношение сторон : 4:3
Частота кадров : 25,000 кадров/сек
Стандарт вещания : PAL
Цветовое пространство : YUV
Субдискретизация насыщенности : 4:2:0
Битовая глубина : 8 бит
Метод сжатия : С потерями
Бит/(Пиксели*Кадры) : 0.169
Размер потока : 495 Мбайт (88%)
Аудио
Идентификатор : 192 (0xC0)
Формат : MPEG Audio
Версия формата : Version 1
Профиль формата : Layer 2
Продолжительность : 40 м.
Вид битрейта : Постоянный
Битрейт : 192 Кбит/сек
Каналы : 2 канала
Частота : 48,0 КГц
Метод сжатия : С потерями
Размер потока : 55,3 Мбайт (10%)

Скриншоты


Скриншоты анаморфированные


-411/393√
[teatrix.ru].t16568.torrent 
Торрент: Зарегистрирован [ 2016-03-16 12:27 ] · 716758BB271DE0AFF8BC9116AB29DB41EB089172

Скачать .torrent

Скачать

11 KB

Статус: проверено
Скачан: 0 раз
Размер: 562 MB
terms.php



Показать сообщения:    

Текущее время: 08-Дек 01:17

Часовой пояс: UTC + 3


Вы не можете начинать темы
Вы не можете отвечать на сообщения
Вы не можете редактировать свои сообщения
Вы не можете удалять свои сообщения
Вы не можете голосовать в опросах
Вы не можете прикреплять файлы к сообщениям
Вы можете скачивать файлы