Воспоминания об Ингрид Бергман / Ingrid Bergman Remembered / Unvergessliche Ingrid Bergman (Джин Фельдман / Gene Feldman, Сьюзетт Винтер / Suzette Winter) [1995, документальный, биография, воспоминания, DVB] VO (СПб, 5-й)


Статистика раздачи [Обновить пиров]
Размер:  1.27 GB   |    Зарегистрирован:  8 месяцев 23 дня   |    Скачан:  0 раз

Полного источника не было: Никогда

Личеров:  3  [  0 KB/s  ]   Подробная статистика пиров
 
   
 
 
 

[Цитировать]

Воспоминания об Ингрид Бергман
Ingrid Bergman Remembered / Unvergessliche Ingrid Bergman- Год выпуска: 1995
Страна: США
Жанр: документальный, биография, воспоминания
Продолжительность: 00:49:42
Перевод: Профессиональный (одноголосый) (отдел дублирования ТРК "Петербург. Пятый канал")
Русские субтитры: нет
Режиссер: Джин Фельдман / Gene Feldman, Сьюзетт Винтер / Suzette Winter
Описание: Об Ингрид Бергман рассказывают ее старшие дочери: актриса и продюсер Пиа Линдстрём / Pia Lindström и актриса Изабелла Росселлини / Isabella Rossellini.
Как актриса она была яркой и уязвимой. У каждого создавалось такое впечатление. Именно за эти качества ее обожали миллионы поклонников. Но Ингрид-женщина была куда сложнее. Мама часто сравнивала себя с поездом, летящим по рельсам. Ничто не могло ее остановить. Если она решила изменить имидж или выйти замуж, она так и поступала. Несмотря на все жизненные невзгоды, она шла вперед. Можно сказать, что она была упрямой, но правильнее сказать: она верила в себя. Она не принимала советов и не давала их. Даже когда она тяжело заболела, Ингрид решила жить и умереть так, как считает правильным. (из предисловия к фильму)
Доп. информация: Собственная запись со спутника (канал "Время: далекое и близкое", пакет НТВ+). Просьба не путать с фильмом "Ингрид Бергман / Ingrid" (1984) того же режиссера – это разные фильмы.
Информация: http://www.imdb.com/title/tt0819622/
Качество: DVB
Формат: MPG
Видео кодек: MPEG2
Аудио кодек: MP2
Видео: MPEG Video 2, 720x576@768x576 (4:3), 25 fps, ~3390 kbps avg
Аудио: 48 kHz, MPEG Audio 2, 2 ch, ~192.00 kbps avg

MediaInfo

Полное имя                               : H:\My Torrents\[apreder]Ingrid_Bergman_Remembered(1995)DVB.mpg
Формат : MPEG-PS
Размер файла : 1,27 Гбайт
Продолжительность : 49 м.
Режим общего битрейта : Переменный
Общий поток : 3655 Кбит/сек
Видео
Идентификатор : 224 (0xE0)
Формат : MPEG Video
Версия формата : Version 2
Профиль формата : Main@Main
Параметр BVOP формата : Да
Параметр матрицы формата : Выборочная
Параметр GOP формата : M=3, N=12
Продолжительность : 49 м.
Вид битрейта : Переменный
Битрейт : 3390 Кбит/сек
Ширина : 720 пикселей
Высота : 576 пикселей
Соотношение сторон : 4:3
Частота кадров : 25,000 кадров/сек
Стандарт вещания : PAL
Цветовое пространство : YUV
Субдискретизация насыщенности : 4:2:0
Битовая глубина : 8 бит
Тип развёртки : Чересстрочная
Порядок развёртки : Верхнее поле первое
Метод сжатия : С потерями
Бит/(Пиксели*Кадры) : 0.327
Размер потока : 1,18 Гбайт (93%)
Аудио
Идентификатор : 192 (0xC0)
Формат : MPEG Audio
Версия формата : Version 1
Профиль формата : Layer 2
Продолжительность : 49 м.
Вид битрейта : Постоянный
Битрейт : 192 Кбит/сек
Каналы : 2 канала
Частота : 48,0 КГц
Метод сжатия : С потерями
Размер потока : 68,3 Мбайт (5%)

Скриншоты


Скриншоты анаморфированные


-415/397√
[teatrix.ru].t16570.torrent 
Торрент: Зарегистрирован [ 2016-03-16 12:33 ] · 2A35D42F49DAAECE990B917C2B64F732F150BF1E

Скачать .torrent

Скачать

13 KB

Статус: проверено
Скачан: 0 раз
Размер: 1.27 GB
terms.php



Показать сообщения:    

Текущее время: 08-Дек 23:13

Часовой пояс: UTC + 3


Вы не можете начинать темы
Вы не можете отвечать на сообщения
Вы не можете редактировать свои сообщения
Вы не можете удалять свои сообщения
Вы не можете голосовать в опросах
Вы не можете прикреплять файлы к сообщениям
Вы можете скачивать файлы