Анна Ахматова. Поэзия (Главная редакция литературно-драматических программ ЦТ) [1976, фильм-портрет, литературные чтения, DVB]


Статистика раздачи [Обновить пиров]
Размер:  733 MB   |    Зарегистрирован:  8 месяцев 26 дней   |    Скачан:  1 раз

Полного источника не было: 6 месяцев 21 день

Личеров:  59  [  0 KB/s  ]   Подробная статистика пиров
 
   
 
 
 

[Цитировать]

Анна Ахматова
Поэзия- Год выпуска: 1976
Страна: СССР
Жанр: фильм-портрет, литературные чтения
Продолжительность: 00:29:57
Перевод: Не требуется
Русские субтитры: нет
Режиссер: Главная редакция литературно-драматических программ ЦТ
Описание: Передача подготовлена к 10-летию со дня смерти Анны Ахматовой. Александр Межиров рассказывает о творчестве поэтессы и читает ее стихи. Мы услышим также голос самой Ахматовой, декламирующей "Когда б вы знали, из какого сора…", "В ту ночь мы сошли друг от друга с ума…", "Читатель".
Александр Петрович Межиров (1923-2009) – русский поэт и переводчик, лауреат Государственной премии СССР (1986).
"Я видел Ахматову только в морге больницы Склифосовского, где была первая панихида. То, о чем я сейчас расскажу, упаси бог, не должно быть понято как хвастовство. В какие-то годы мне начала звонить Надежда Яковлевна Мандельштам, от имени Ахматовой приглашая меня в гости. Но я страшился хотя бы малого разочарования в своем божестве (все же возраст, может быть, причуды, суетливость, свита) и отвечал, что благодарю, но болею. Прошло какое-то время, как вдруг получил большой конверт, распечатал и...перехватило дыхание. То была фотография старой Ахматовой. Профиль. В таком возрасте женщины обычно так не фотографируются. Но ее профиль был прекрасен. На обороте ее рукой было написано: "Александру Межирову, в долготу жизни. Анна Ахматова". (Перебирая домашний архив, Александр Межиров)
Доп. информация: запись со спутника (канал "Время: далекое и близкое").
Качество: DVB
Формат: MPG
Видео кодек: MPEG2
Аудио кодек: MP2
Видео: MPEG Video 2, 720x576@768x576 (4:3), 25 fps, ~3162 kbps avg
Аудио: 48 kHz, MPEG Audio 2, 2 ch, ~192.00 kbps avg

MediaInfo

Полное имя                               : H:\My Torrents\[apreder]Anna_Akhmatova_Poetry(1976)DVB.mpg
Формат : MPEG-PS
Размер файла : 733 Мбайт
Продолжительность : 29 м.
Режим общего битрейта : Переменный
Общий поток : 3422 Кбит/сек
Видео
Идентификатор : 224 (0xE0)
Формат : MPEG Video
Версия формата : Version 2
Профиль формата : Main@Main
Параметр BVOP формата : Да
Параметр матрицы формата : Выборочная
Параметр GOP формата : M=3, N=12
Продолжительность : 29 м.
Вид битрейта : Переменный
Битрейт : 3162 Кбит/сек
Ширина : 720 пикселей
Высота : 576 пикселей
Соотношение сторон : 4:3
Частота кадров : 25,000 кадров/сек
Стандарт вещания : PAL
Цветовое пространство : YUV
Субдискретизация насыщенности : 4:2:0
Битовая глубина : 8 бит
Тип развёртки : Чересстрочная
Порядок развёртки : Верхнее поле первое
Метод сжатия : С потерями
Бит/(Пиксели*Кадры) : 0.305
Размер потока : 678 Мбайт (92%)
Аудио
Идентификатор : 192 (0xC0)
Формат : MPEG Audio
Версия формата : Version 1
Профиль формата : Layer 2
Продолжительность : 29 м.
Вид битрейта : Постоянный
Битрейт : 192 Кбит/сек
Каналы : 2 канала
Частота : 48,0 КГц
Метод сжатия : С потерями
Размер потока : 41,1 Мбайт (6%)

Скриншоты


Скриншоты анаморфированные


-423/405√
[teatrix.ru].t16572.torrent 
Торрент: Зарегистрирован [ 2016-03-16 12:31 ] · C7CA17196155FAC1A9EF84395CECEF4375C72ED1

Скачать .torrent

Скачать

15 KB

Статус: проверено
Скачан: 1 раз
Размер: 733 MB
terms.php



Быстрый ответ

Имя:

      
Для отправки сообщений необходимо включить JavaScript
Показать сообщения:    

Текущее время: 11-Дек 14:59

Часовой пояс: UTC + 3


Вы можете начинать темы
Вы можете отвечать на сообщения
Вы не можете редактировать свои сообщения
Вы не можете удалять свои сообщения
Вы не можете голосовать в опросах
Вы не можете прикреплять файлы к сообщениям
Вы можете скачивать файлы