(Easy Listening, Classical Crossover, Improvisation) Jan Vayne - Коллекция (21CD + 2CDS) (1989-2009), FLAC (image+.cue), lossless


 

[Цитировать]

-●★●Jan Vayne FLAC Коллекция ●★●- -Жанр: Easy Listening, Classical Crossover, Improvisation | Производитель диска: Nederland | Лейбл: EMI Music Holland / Vayne Music
Годы издания: 1989-2009 | Аудио кодек: FLAC | Тип рипа: image+.cue | Битрейт аудио: lossless
Источник (релизер): Рипы оригинальных дисков из личной коллекции | Наличие сканов: 600dpi, PNG
-Ян Вейн - известный голландский пианист-виртуоз импровизатор. На своих многочисленных альбомах, как на палитре художника, гармонично сочетаются шедевры классической музыки и поп-рок композиции, Ян умело дополняет этот симбиоз своими виртуозными и спонтанными импровизациями, что придает мелодиям Яна особую утонченность и красоту.
Данная раздача содержит в себе почти полную сольную дискографию этого гениального пианиста, включая раритетный пре-дебютный альбом, вышедший под его настоящим именем Ян Веенье.
-●★●АЛЬБОМЫ ●★●-

1989. Reflections

Год выпуска диска : 1989
Производитель диска : Нидерланды
Аудио кодек : FLAC
Тип рипа : image+.cue (Test & Copy)
Битрейт аудио : lossless
Продолжительность : 47:56
Лейбл : Eurosound
Каталожный номер : ES46967 CD
Источник (релизер): Рип оригинального диска из личной коллекции
Сканы: прилагаются


01. Theme by Mozart
02. Romance I
03. If I Had Words (Saint-Sans)
04. Introduction and Fantasy
05. O Haupt voll Blut und Wunden (Bach)
06. Yesterday
07. Yamaha Cantate (Bach)
08. Do You Know?
09. Romance II (Grieg / Morricone / ... )
10. L'amour c'est toi
-

Лог создания рипа

Exact Audio Copy V1.0 beta 3 from 29. August 2011
EAC extraction logfile from 3. October 2012, 10:42
Jan Vayne / Reflections
Used drive : TSSTcorpCDDVDW TS-L633C Adapter: 2 ID: 0
Read mode : Secure
Utilize accurate stream : Yes
Defeat audio cache : Yes
Make use of C2 pointers : No
Read offset correction : 6
Overread into Lead-In and Lead-Out : No
Fill up missing offset samples with silence : Yes
Delete leading and trailing silent blocks : No
Null samples used in CRC calculations : Yes
Used interface : Native Win32 interface for Win NT & 2000
Used output format : Internal WAV Routines
Sample format : 44.100 Hz; 16 Bit; Stereo
TOC of the extracted CD
Track | Start | Length | Start sector | End sector
---------------------------------------------------------
1 | 0:00.33 | 3:24.05 | 33 | 15337
2 | 3:24.38 | 6:27.72 | 15338 | 44434
3 | 9:52.35 | 5:28.38 | 44435 | 69072
4 | 15:20.73 | 3:49.42 | 69073 | 86289
5 | 19:10.40 | 2:17.18 | 86290 | 96582
6 | 21:27.58 | 7:09.50 | 96583 | 128807
7 | 28:37.33 | 3:05.32 | 128808 | 142714
8 | 31:42.65 | 6:11.05 | 142715 | 170544
9 | 37:53.70 | 6:35.53 | 170545 | 200222
10 | 44:29.48 | 3:26.27 | 200223 | 215699
Range status and errors
Selected range
Filename C:\Users\user\Desktop\Jan Vayne - Reflections (ES46967 CD).wav
Peak level 99.8 %
Extraction speed 3.5 X
Range quality 100.0 %
Test CRC 5D395486
Copy CRC 5D395486
Copy OK
No errors occurred
AccurateRip summary
Track 1 not present in database
Track 2 not present in database
Track 3 not present in database
Track 4 not present in database
Track 5 not present in database
Track 6 not present in database
Track 7 not present in database
Track 8 not present in database
Track 9 not present in database
Track 10 not present in database
None of the tracks are present in the AccurateRip database
End of status report

1991. Colours Of My Mind

Год выпуска диска : 1991
Производитель диска : Нидерланды
Аудио кодек : FLAC
Тип рипа : image+.cue (Test & Copy)
Битрейт аудио : lossless
Продолжительность : 43:57
Лейбл : EMI Bovema Holland
Каталожный номер : 077779788729
Источник (релизер): Рип оригинального диска из личной коллекции
Сканы: прилагаются


01. Theme From a Diary
02. Pieces Of Dreams (Bach)
03. Still Falling For You
04. Eternity (Mahler)
05. Tender Moments (Mozart)
06. Something Of Value (Scriabin)
07. Passions
08. Lyrics Of Music (Liszt)
09. Fairytale (Liszt)
10. Lost in Heaven (Chopin)
11. Memory
12. Country Living (Beethoven)
13. A Flood Of Light (Chopin)

-

Лог создания рипа

Exact Audio Copy V1.0 beta 3 from 29. August 2011
EAC extraction logfile from 8. October 2012, 20:58
Jan Vayne / Colours Of My Mind (077779788729)
Used drive : TSSTcorpCDDVDW TS-L633C Adapter: 2 ID: 0
Read mode : Secure
Utilize accurate stream : Yes
Defeat audio cache : Yes
Make use of C2 pointers : No
Read offset correction : 6
Overread into Lead-In and Lead-Out : No
Fill up missing offset samples with silence : Yes
Delete leading and trailing silent blocks : No
Null samples used in CRC calculations : Yes
Used interface : Native Win32 interface for Win NT & 2000
Used output format : Internal WAV Routines
Sample format : 44.100 Hz; 16 Bit; Stereo
TOC of the extracted CD
Track | Start | Length | Start sector | End sector
---------------------------------------------------------
1 | 0:00.33 | 2:45.67 | 33 | 12474
2 | 2:46.25 | 4:55.55 | 12475 | 34654
3 | 7:42.05 | 3:06.10 | 34655 | 48614
4 | 10:48.15 | 2:59.18 | 48615 | 62057
5 | 13:47.33 | 3:59.07 | 62058 | 79989
6 | 17:46.40 | 2:01.65 | 79990 | 89129
7 | 19:48.30 | 4:33.68 | 89130 | 109672
8 | 24:22.23 | 5:15.47 | 109673 | 133344
9 | 29:37.70 | 2:53.45 | 133345 | 146364
10 | 32:31.40 | 2:13.43 | 146365 | 156382
11 | 34:45.08 | 3:30.25 | 156383 | 172157
12 | 38:15.33 | 3:16.05 | 172158 | 186862
13 | 41:31.38 | 2:25.70 | 186863 | 197807
Range status and errors
Selected range
Filename C:\Users\user\Desktop\Jan Vayne - Colours Of My Mind (077779788729).wav
Peak level 99.2 %
Extraction speed 3.5 X
Range quality 100.0 %
Test CRC 49916712
Copy CRC 49916712
Copy OK
No errors occurred
AccurateRip summary
Track 1 accurately ripped (confidence 10) [36B1C5BB] (AR v1)
Track 2 accurately ripped (confidence 10) [8B6D26F6] (AR v1)
Track 3 accurately ripped (confidence 10) [406386B3] (AR v1)
Track 4 accurately ripped (confidence 10) [8029EA2B] (AR v1)
Track 5 accurately ripped (confidence 10) [2ECE8B7B] (AR v1)
Track 6 accurately ripped (confidence 10) [5629CF80] (AR v1)
Track 7 accurately ripped (confidence 10) [E6582681] (AR v1)
Track 8 accurately ripped (confidence 10) [9D745F85] (AR v1)
Track 9 accurately ripped (confidence 10) [B7ABFCDA] (AR v1)
Track 10 accurately ripped (confidence 10) [55A0880C] (AR v1)
Track 11 accurately ripped (confidence 10) [750095DC] (AR v1)
Track 12 accurately ripped (confidence 9) [709360DB] (AR v1)
Track 13 accurately ripped (confidence 9) [C042E500] (AR v1)
All tracks accurately ripped
End of status report

1992. Living Colours

Год выпуска диска : 1992
Производитель диска : Нидерланды
Аудио кодек : FLAC
Тип рипа : image+.cue (Test & Copy)
Битрейт аудио : lossless
Продолжительность : 56:26
Лейбл : EMI Music Holland BV
Каталожный номер : 077778035923
Источник (релизер): Рип оригинального диска из личной коллекции
Сканы: прилагаются


01. Who Wants to Live Forever
02. The Show Must Go On
03. Your Absence (Vivaldi)
04. Colorful People (Bach)
05. And Soft Rains Will Be Falling (Rachmaninoff / Satie / Goldmark / Schumann)
06. Natural Beauty Unaffected
07. La chanson des vieux amants
08. Going Nowhere
09. Old and Wise
10. Frozen Feelings (Mendelssohn/Bartholdy)
11. Unchained
12. Alone
13. Long and Winding Road
14. Eleanor Rigby
15. Fears for Tears (Grieg)
-

Лог создания рипа

Exact Audio Copy V1.0 beta 3 from 29. August 2011
EAC extraction logfile from 8. October 2012, 19:25
Jan Vayne / Living Colours (077778035923)
Used drive : TSSTcorpCDDVDW TS-L633C Adapter: 2 ID: 0
Read mode : Secure
Utilize accurate stream : Yes
Defeat audio cache : Yes
Make use of C2 pointers : No
Read offset correction : 6
Overread into Lead-In and Lead-Out : No
Fill up missing offset samples with silence : Yes
Delete leading and trailing silent blocks : No
Null samples used in CRC calculations : Yes
Used interface : Native Win32 interface for Win NT & 2000
Used output format : Internal WAV Routines
Sample format : 44.100 Hz; 16 Bit; Stereo
TOC of the extracted CD
Track | Start | Length | Start sector | End sector
---------------------------------------------------------
1 | 0:00.00 | 2:13.37 | 0 | 10011
2 | 2:13.37 | 3:27.43 | 10012 | 25579
3 | 5:41.05 | 3:23.37 | 25580 | 40841
4 | 9:04.42 | 3:29.38 | 40842 | 56554
5 | 12:34.05 | 4:18.17 | 56555 | 75921
6 | 16:52.22 | 3:42.65 | 75922 | 92636
7 | 20:35.12 | 4:08.08 | 92637 | 111244
8 | 24:43.20 | 3:11.57 | 111245 | 125626
9 | 27:55.02 | 5:23.60 | 125627 | 149911
10 | 33:18.62 | 3:59.13 | 149912 | 167849
11 | 37:18.00 | 5:02.20 | 167850 | 190519
12 | 42:20.20 | 3:41.72 | 190520 | 207166
13 | 46:02.17 | 4:37.15 | 207167 | 227956
14 | 50:39.32 | 2:14.20 | 227957 | 238026
15 | 52:53.52 | 3:33.35 | 238027 | 254036
Range status and errors
Selected range
Filename C:\Users\user\Desktop\Jan Vayne - Living Colours (077778035923).wav
Peak level 100.0 %
Extraction speed 3.8 X
Range quality 100.0 %
Test CRC D17ADC15
Copy CRC D17ADC15
Copy OK
No errors occurred
AccurateRip summary
Track 1 accurately ripped (confidence 1) [DF5ACF6B] (AR v1)
Track 2 accurately ripped (confidence 1) [3D8D5A8E] (AR v1)
Track 3 accurately ripped (confidence 1) [40711C32] (AR v1)
Track 4 accurately ripped (confidence 1) [2E70AD09] (AR v1)
Track 5 accurately ripped (confidence 1) [F8FBB09D] (AR v1)
Track 6 accurately ripped (confidence 1) [28CF31E7] (AR v1)
Track 7 cannot be verified as accurate (confidence 1) [16D8ACA8], AccurateRip returned [08293EB6] (AR v2)
Track 8 accurately ripped (confidence 1) [CDF5FAC5] (AR v1)
Track 9 cannot be verified as accurate (confidence 1) [8A8F8F63], AccurateRip returned [3CCCDC8F] (AR v2)
Track 10 accurately ripped (confidence 1) [027C913C] (AR v1)
Track 11 accurately ripped (confidence 1) [E5513400] (AR v1)
Track 12 accurately ripped (confidence 1) [55819FA1] (AR v1)
Track 13 cannot be verified as accurate (confidence 1) [E1C2ACB2], AccurateRip returned [B89DF301] (AR v2)
Track 14 not present in database
Track 15 accurately ripped (confidence 1) [317CC233] (AR v1)
11 track(s) accurately ripped
3 track(s) could not be verified as accurate
1 track(s) not present in the AccurateRip database
Some tracks could not be verified as accurate
End of status report

1993. Hang on to a Dream

Год выпуска диска : 1993
Производитель диска : Нидерланды
Аудио кодек : FLAC
Тип рипа : image+.cue (Test & Copy)
Битрейт аудио : lossless
Продолжительность : 59:01
Лейбл : EMI Music Holland BV
Каталожный номер : 724382747925
Источник (релизер): Рип оригинального диска из личной коллекции
Сканы: прилагаются


01. I Will Always Love You
02. More Than Anything in This World (Hard to Say I'm Sorry)
03. A Spell Of Silence (Vivaldi)
04. You Are So Beautiful
05. Mystified
06. Alive (Vivaldi)
07. You
08. The Prophet's Tale
09. Warhol (Vivaldi)
10. Innerbeauty (Hello)
11. November Rain
12. After the Rain
13. A Final Awakening (The Prophecy Fulfilled)
14. A Hazy Shade Of Winter (Vivaldi)
15. Hang on to a Dream

-

Лог создания рипа

Exact Audio Copy V1.0 beta 3 from 29. August 2011
EAC extraction logfile from 8. October 2012, 22:47
Jan Vayne / Hang on to a Dream (724382747925)
Used drive : TSSTcorpCDDVDW TS-L633C Adapter: 2 ID: 0
Read mode : Secure
Utilize accurate stream : Yes
Defeat audio cache : Yes
Make use of C2 pointers : No
Read offset correction : 6
Overread into Lead-In and Lead-Out : No
Fill up missing offset samples with silence : Yes
Delete leading and trailing silent blocks : No
Null samples used in CRC calculations : Yes
Used interface : Native Win32 interface for Win NT & 2000
Used output format : Internal WAV Routines
Sample format : 44.100 Hz; 16 Bit; Stereo
TOC of the extracted CD
Track | Start | Length | Start sector | End sector
---------------------------------------------------------
1 | 0:00.32 | 4:35.13 | 32 | 20669
2 | 4:35.45 | 4:09.02 | 20670 | 39346
3 | 8:44.47 | 3:54.53 | 39347 | 56949
4 | 12:39.25 | 2:07.65 | 56950 | 66539
5 | 14:47.15 | 4:23.05 | 66540 | 86269
6 | 19:10.20 | 4:28.40 | 86270 | 106409
7 | 23:38.60 | 6:04.22 | 106410 | 133731
8 | 29:43.07 | 2:33.70 | 133732 | 145276
9 | 32:17.02 | 2:46.55 | 145277 | 157781
10 | 35:03.57 | 4:45.38 | 157782 | 179194
11 | 39:49.20 | 5:44.42 | 179195 | 205036
12 | 45:33.62 | 3:43.50 | 205037 | 221811
13 | 49:17.37 | 4:01.18 | 221812 | 239904
14 | 53:18.55 | 3:34.10 | 239905 | 255964
15 | 56:52.65 | 2:09.10 | 255965 | 265649
Range status and errors
Selected range
Filename C:\Users\user\Desktop\Jan Vayne - Hang on to a Dream (724382747925).wav
Peak level 100.0 %
Extraction speed 4.2 X
Range quality 100.0 %
Test CRC 4EB39CE5
Copy CRC 4EB39CE5
Copy OK
No errors occurred
AccurateRip summary
Track 1 accurately ripped (confidence 3) [1E0A31FF] (AR v1)
Track 2 accurately ripped (confidence 3) [E6DAC29C] (AR v1)
Track 3 accurately ripped (confidence 3) [DC222392] (AR v1)
Track 4 accurately ripped (confidence 4) [F90D69E3] (AR v1)
Track 5 accurately ripped (confidence 3) [6D76E8A7] (AR v1)
Track 6 accurately ripped (confidence 3) [B0123BD2] (AR v1)
Track 7 accurately ripped (confidence 3) [B6E948D7] (AR v1)
Track 8 accurately ripped (confidence 3) [90AD7AF2] (AR v1)
Track 9 accurately ripped (confidence 3) [2C97B0D9] (AR v1)
Track 10 accurately ripped (confidence 3) [3942145E] (AR v1)
Track 11 accurately ripped (confidence 3) [29BB6D90] (AR v1)
Track 12 accurately ripped (confidence 3) [C73A35AD] (AR v1)
Track 13 accurately ripped (confidence 3) [FE9F9A39] (AR v1)
Track 14 accurately ripped (confidence 3) [675C0554] (AR v1)
Track 15 accurately ripped (confidence 3) [259E80B4] (AR v1)
All tracks accurately ripped
End of status report

1994. Vanity

Год выпуска диска : 1994
Производитель диска : Нидерланды
Аудио кодек : FLAC
Тип рипа : image+.cue (Test & Copy)
Битрейт аудио : lossless
Продолжительность : 49:33
Лейбл : EMI Music Holland BV
Каталожный номер : 724383119028
Источник (релизер): Рип оригинального диска из личной коллекции
Сканы: прилагаются


01. Ruby's Arms
02. Where the Violets Grow
03. Age of Loneliness
04. Invitation to the Blues
05. Live for Love
06. Faithful
07. Martha
08. Underneath the Sheltering Sky
09. A Tear Garden
-

Лог создания рипа

Exact Audio Copy V1.0 beta 3 from 29. August 2011
EAC extraction logfile from 8. October 2012, 21:39
Jan Vayne / Vanity (724383119028)
Used drive : TSSTcorpCDDVDW TS-L633C Adapter: 2 ID: 0
Read mode : Secure
Utilize accurate stream : Yes
Defeat audio cache : Yes
Make use of C2 pointers : No
Read offset correction : 6
Overread into Lead-In and Lead-Out : No
Fill up missing offset samples with silence : Yes
Delete leading and trailing silent blocks : No
Null samples used in CRC calculations : Yes
Used interface : Native Win32 interface for Win NT & 2000
Used output format : Internal WAV Routines
Sample format : 44.100 Hz; 16 Bit; Stereo
TOC of the extracted CD
Track | Start | Length | Start sector | End sector
---------------------------------------------------------
1 | 0:00.00 | 5:53.05 | 0 | 26479
2 | 5:53.05 | 4:15.25 | 26480 | 45629
3 | 10:08.30 | 7:28.72 | 45630 | 79301
4 | 17:37.27 | 4:59.03 | 79302 | 101729
5 | 22:36.30 | 6:45.12 | 101730 | 132116
6 | 29:21.42 | 5:02.48 | 132117 | 154814
7 | 34:24.15 | 5:30.02 | 154815 | 179566
8 | 39:54.17 | 3:08.68 | 179567 | 193734
9 | 43:03.10 | 6:29.52 | 193735 | 222961
Range status and errors
Selected range
Filename C:\Users\user\Desktop\Jan Vayne - Vanity (724383119028).wav
Peak level 95.8 %
Extraction speed 3.6 X
Range quality 100.0 %
Test CRC C2CACFD9
Copy CRC C2CACFD9
Copy OK
No errors occurred
AccurateRip summary
Track 1 not present in database
Track 2 not present in database
Track 3 not present in database
Track 4 not present in database
Track 5 not present in database
Track 6 not present in database
Track 7 not present in database
Track 8 not present in database
Track 9 not present in database
None of the tracks are present in the AccurateRip database
End of status report

1996. Classics & Pop

Год выпуска диска : 1996
Производитель диска : Нидерланды
Аудио кодек : FLAC
Тип рипа : image+.cue (Test & Copy)
Битрейт аудио : lossless
Продолжительность : 57:40
Лейбл : EMI Music Holland BV
Каталожный номер : 724383785025
Источник (релизер): Рип оригинального диска из личной коллекции
Сканы: прилагаются


01. Chopin Impression
02. All By Myself
03. Brahms Impression
04. Bohemian Rhapsody
05. We Are the Champions
06. Ravel Impression
07. Private Investigations
08. Schindler's List
09. Bach Impression
10. Conquest Of Paradise
11. Vivaldi Impression
12. I Will Always Love You
13. Mozart Impression
14. Music

-

Лог создания рипа

Exact Audio Copy V1.0 beta 3 from 29. August 2011
EAC extraction logfile from 3. November 2012, 13:49
Jan Vayne / Classics & Pop (724383785025)
Used drive : TSSTcorpCDDVDW TS-L633C Adapter: 2 ID: 0
Read mode : Secure
Utilize accurate stream : Yes
Defeat audio cache : Yes
Make use of C2 pointers : No
Read offset correction : 6
Overread into Lead-In and Lead-Out : No
Fill up missing offset samples with silence : Yes
Delete leading and trailing silent blocks : No
Null samples used in CRC calculations : Yes
Used interface : Native Win32 interface for Win NT & 2000
Used output format : Internal WAV Routines
Sample format : 44.100 Hz; 16 Bit; Stereo
TOC of the extracted CD
Track | Start | Length | Start sector | End sector
---------------------------------------------------------
1 | 0:00.00 | 3:52.65 | 0 | 17464
2 | 3:52.65 | 6:54.07 | 17465 | 48521
3 | 10:46.72 | 2:41.63 | 48522 | 60659
4 | 13:28.60 | 2:51.45 | 60660 | 73529
5 | 16:20.30 | 3:01.22 | 73530 | 87126
6 | 19:21.52 | 3:49.65 | 87127 | 104366
7 | 23:11.42 | 5:48.70 | 104367 | 130536
8 | 29:00.37 | 4:15.10 | 130537 | 149671
9 | 33:15.47 | 2:55.58 | 149672 | 162854
10 | 36:11.30 | 4:57.30 | 162855 | 185159
11 | 41:08.60 | 2:47.12 | 185160 | 197696
12 | 43:55.72 | 4:17.55 | 197697 | 217026
13 | 48:13.52 | 3:19.45 | 217027 | 231996
14 | 51:33.22 | 6:06.55 | 231997 | 259501
Range status and errors
Selected range
Filename C:\Users\user\Desktop\Jan Vayne - Classics & Pop (724383785025).wav
Peak level 100.0 %
Extraction speed 3.0 X
Range quality 100.0 %
Test CRC 64CDFA4B
Copy CRC 64CDFA4B
Copy OK
No errors occurred
AccurateRip summary
Track 1 accurately ripped (confidence 4) [71903C5C] (AR v1)
Track 2 accurately ripped (confidence 4) [35956082] (AR v1)
Track 3 accurately ripped (confidence 4) [ED93B9CE] (AR v1)
Track 4 accurately ripped (confidence 4) [5CCB6E2F] (AR v1)
Track 5 accurately ripped (confidence 4) [93A84633] (AR v1)
Track 6 accurately ripped (confidence 4) [F1453AC4] (AR v1)
Track 7 accurately ripped (confidence 4) [30007891] (AR v1)
Track 8 accurately ripped (confidence 4) [B08F188E] (AR v1)
Track 9 accurately ripped (confidence 4) [DA70B397] (AR v1)
Track 10 accurately ripped (confidence 4) [F9B1E8E8] (AR v1)
Track 11 accurately ripped (confidence 4) [93EDA9C4] (AR v1)
Track 12 accurately ripped (confidence 4) [0FA5C7A3] (AR v1)
Track 13 accurately ripped (confidence 4) [A2EFC5B3] (AR v1)
Track 14 accurately ripped (confidence 4) [047A2481] (AR v1)
All tracks accurately ripped
End of status report

1997. Secrets Of Silence

Год выпуска диска : 1997
Производитель диска : Нидерланды
Аудио кодек : FLAC
Тип рипа : image+.cue (Test & Copy)
Битрейт аудио : lossless
Продолжительность : 50:45
Лейбл : EMI Music Holland BV
Каталожный номер : 724382355328
Источник (релизер): Рип оригинального диска из личной коллекции
Сканы: прилагаются


01. Dreaming (Schumann)
02. Serenity (Albinoni)
03. Early Dawning (Grieg)
04. Melancholy (Rachmaninoff)
05. Love of Life (Liszt)
06. Whisper of Hope (Bach)
07. In the Mist of Time (Beethoven)
08. Secrets of Silence (Scriabin)
09. Precious (Francescatti)
10. A Distant Voice (Franck)
11. Memories of Venice (Mahler)
-

Лог создания рипа

Exact Audio Copy V1.0 beta 3 from 29. August 2011
EAC extraction logfile from 8. October 2012, 14:03
Jan Vayne / Secrets Of Silence (724382355328)
Used drive : TSSTcorpCDDVDW TS-L633C Adapter: 2 ID: 0
Read mode : Secure
Utilize accurate stream : Yes
Defeat audio cache : Yes
Make use of C2 pointers : No
Read offset correction : 6
Overread into Lead-In and Lead-Out : No
Fill up missing offset samples with silence : Yes
Delete leading and trailing silent blocks : No
Null samples used in CRC calculations : Yes
Used interface : Native Win32 interface for Win NT & 2000
Used output format : Internal WAV Routines
Sample format : 44.100 Hz; 16 Bit; Stereo
TOC of the extracted CD
Track | Start | Length | Start sector | End sector
---------------------------------------------------------
1 | 0:01.00 | 6:11.11 | 75 | 27910
2 | 6:12.11 | 3:04.57 | 27911 | 41767
3 | 9:16.68 | 4:54.56 | 41768 | 63873
4 | 14:11.49 | 6:38.57 | 63874 | 93780
5 | 20:50.31 | 3:47.30 | 93781 | 110835
6 | 24:37.61 | 4:59.26 | 110836 | 133286
7 | 29:37.12 | 4:07.14 | 133287 | 151825
8 | 33:44.26 | 4:16.60 | 151826 | 171085
9 | 38:01.11 | 2:44.65 | 171086 | 183450
10 | 40:46.01 | 3:54.08 | 183451 | 201008
11 | 44:40.09 | 6:05.33 | 201009 | 228416
Range status and errors
Selected range
Filename C:\Users\user\Desktop\Jan Vayne - Secrets Of Silence (724382355328).wav
Peak level 86.0 %
Extraction speed 3.7 X
Range quality 100.0 %
Test CRC EB84822E
Copy CRC EB84822E
Copy OK
No errors occurred
AccurateRip summary
Track 1 not present in database
Track 2 not present in database
Track 3 not present in database
Track 4 not present in database
Track 5 not present in database
Track 6 not present in database
Track 7 not present in database
Track 8 not present in database
Track 9 not present in database
Track 10 not present in database
Track 11 not present in database
None of the tracks are present in the AccurateRip database
End of status report

1998. The Christmas Album

Год выпуска диска : 1998
Производитель диска : Нидерланды
Аудио кодек : FLAC
Тип рипа : image+.cue (Test & Copy)
Битрейт аудио : lossless
Продолжительность : 51:29
Лейбл : EMI Music Holland BV
Каталожный номер : 724349749924
Источник (релизер): Рип оригинального диска из личной коллекции
Сканы: прилагаются


01. Christmas Tiding
02. Silent Night
03. Improvisation on O Come, All Ye Faithful
04. O Come, All Ye Faithful
05. Improvisation on O Come, All Ye Faithful & Hoe leit dit Kindeke
06. Hoe leit dit Kindeke
07. Meditation
08. God Rest You Merry, Gentlemen
09. O Kindeke klein
10. Improvisation on O Kindeke klein & Jingle bells & Es ist ein Ros entsprungen
11. Es ist ein Ros entsprungen
12. Once in Royal David's City
13. Improvisation on In dulci jubilo
14. Gloria in excelsis Deo!
15. Prelude
16. Ik kniel aan Uwe kribbe neer (I)
17. Interlude
18. Ik kniel aan Uwe kribbe neer (II)
19. The First Nowell
20. Midden in de winternacht
21. Last Christmas
22. Impromptu
23. We Wish You a Merry Christmas
24. Hark! The Herald Angels Sing
25. Hallelujah from Handel's Messiah

-

Лог создания рипа

Exact Audio Copy V1.0 beta 3 from 29. August 2011
EAC extraction logfile from 9. October 2012, 9:32
Jan Vayne / The Christmas Album (724349749924)
Used drive : TSSTcorpCDDVDW TS-L633C Adapter: 2 ID: 0
Read mode : Secure
Utilize accurate stream : Yes
Defeat audio cache : Yes
Make use of C2 pointers : No
Read offset correction : 6
Overread into Lead-In and Lead-Out : No
Fill up missing offset samples with silence : Yes
Delete leading and trailing silent blocks : No
Null samples used in CRC calculations : Yes
Used interface : Native Win32 interface for Win NT & 2000
Used output format : Internal WAV Routines
Sample format : 44.100 Hz; 16 Bit; Stereo
TOC of the extracted CD
Track | Start | Length | Start sector | End sector
---------------------------------------------------------
1 | 0:00.00 | 2:22.12 | 0 | 10661
2 | 2:22.12 | 3:00.70 | 10662 | 24231
3 | 5:23.07 | 2:29.00 | 24232 | 35406
4 | 7:52.07 | 1:49.15 | 35407 | 43596
5 | 9:41.22 | 1:26.15 | 43597 | 50061
6 | 11:07.37 | 2:54.03 | 50062 | 63114
7 | 14:01.40 | 2:08.42 | 63115 | 72756
8 | 16:10.07 | 2:01.45 | 72757 | 81876
9 | 18:11.52 | 4:09.35 | 81877 | 100586
10 | 22:21.12 | 1:51.50 | 100587 | 108961
11 | 24:12.62 | 2:15.20 | 108962 | 119106
12 | 26:28.07 | 1:48.68 | 119107 | 127274
13 | 28:17.00 | 2:29.10 | 127275 | 138459
14 | 30:46.10 | 1:45.27 | 138460 | 146361
15 | 32:31.37 | 1:07.33 | 146362 | 151419
16 | 33:38.70 | 1:20.15 | 151420 | 157434
17 | 34:59.10 | 0:20.27 | 157435 | 158961
18 | 35:19.37 | 1:00.60 | 158962 | 163521
19 | 36:20.22 | 2:04.73 | 163522 | 172894
20 | 38:25.20 | 4:47.47 | 172895 | 194466
21 | 43:12.67 | 2:07.03 | 194467 | 203994
22 | 45:19.70 | 1:05.50 | 203995 | 208919
23 | 46:25.45 | 1:16.47 | 208920 | 214666
24 | 47:42.17 | 1:12.65 | 214667 | 220131
25 | 48:55.07 | 2:33.50 | 220132 | 231656
Range status and errors
Selected range
Filename C:\Users\user\Desktop\Jan Vayne - The Christmas Album (724349749924).wav
Peak level 98.0 %
Extraction speed 3.8 X
Range quality 100.0 %
Test CRC CE0BA7F6
Copy CRC CE0BA7F6
Copy OK
No errors occurred
AccurateRip summary
Track 1 accurately ripped (confidence 1) [FF15256F] (AR v1)
Track 2 accurately ripped (confidence 1) [CABA3491] (AR v1)
Track 3 accurately ripped (confidence 1) [5695789D] (AR v1)
Track 4 accurately ripped (confidence 1) [C9B802D1] (AR v1)
Track 5 accurately ripped (confidence 1) [FF55296A] (AR v1)
Track 6 accurately ripped (confidence 1) [2A44591F] (AR v1)
Track 7 accurately ripped (confidence 1) [5CB2AF5C] (AR v1)
Track 8 accurately ripped (confidence 1) [70127C07] (AR v1)
Track 9 accurately ripped (confidence 1) [56B51BE5] (AR v1)
Track 10 accurately ripped (confidence 1) [BF2B5235] (AR v1)
Track 11 accurately ripped (confidence 1) [92D9C964] (AR v1)
Track 12 accurately ripped (confidence 1) [1D7B3E52] (AR v1)
Track 13 accurately ripped (confidence 1) [F77C84FE] (AR v1)
Track 14 accurately ripped (confidence 1) [FD23696F] (AR v1)
Track 15 accurately ripped (confidence 1) [07A38824] (AR v1)
Track 16 accurately ripped (confidence 1) [E7F32434] (AR v1)
Track 17 accurately ripped (confidence 1) [52493EE4] (AR v1)
Track 18 accurately ripped (confidence 1) [EF8E5248] (AR v1)
Track 19 accurately ripped (confidence 1) [811691C6] (AR v1)
Track 20 accurately ripped (confidence 1) [CD1C637F] (AR v1)
Track 21 accurately ripped (confidence 1) [82AD5A58] (AR v1)
Track 22 accurately ripped (confidence 1) [219CCB42] (AR v1)
Track 23 accurately ripped (confidence 1) [588C2BB9] (AR v1)
Track 24 accurately ripped (confidence 1) [2BB65BCC] (AR v1)
Track 25 accurately ripped (confidence 1) [73AAE048] (AR v1)
All tracks accurately ripped
End of status report

1998. Romantic Popsongs

Год выпуска диска : 1998
Производитель диска : Нидерланды
Аудио кодек : FLAC
Тип рипа : image+.cue (Test & Copy)
Битрейт аудио : lossless
Продолжительность : 58:46
Лейбл : отсутствует
Каталожный номер : 8712715778007
Источник (релизер): Рип оригинального диска из личной коллекции
Сканы: прилагаются


01. Your Song
02. Who Wants to Live Forever
03. Angie
04. Dust in the Wind
05. Everything I Do (I Do It for You)
06. Imagine
07. Margherita
08. Old and Wise
09. She's Always a Woman to Me
10. You Needed Me
11. Sorry Seems to Be the Hardest Word
12. Tears in Heaven
13. The Long and Winding Road
14. Imagine (#2)
-

Лог создания рипа

Exact Audio Copy V1.0 beta 3 from 29. August 2011
EAC extraction logfile from 9. October 2012, 8:20
Jan Vayne / Romantic Popsongs (8712715778007)
Used drive : TSSTcorpCDDVDW TS-L633C Adapter: 2 ID: 0
Read mode : Secure
Utilize accurate stream : Yes
Defeat audio cache : Yes
Make use of C2 pointers : No
Read offset correction : 6
Overread into Lead-In and Lead-Out : No
Fill up missing offset samples with silence : Yes
Delete leading and trailing silent blocks : No
Null samples used in CRC calculations : Yes
Used interface : Native Win32 interface for Win NT & 2000
Used output format : Internal WAV Routines
Sample format : 44.100 Hz; 16 Bit; Stereo
TOC of the extracted CD
Track | Start | Length | Start sector | End sector
---------------------------------------------------------
1 | 0:00.00 | 3:52.52 | 0 | 17451
2 | 3:52.52 | 3:41.09 | 17452 | 34035
3 | 7:33.61 | 4:18.42 | 34036 | 53427
4 | 11:52.28 | 4:14.05 | 53428 | 72482
5 | 16:06.33 | 4:29.56 | 72483 | 92713
6 | 20:36.14 | 4:26.56 | 92714 | 112719
7 | 25:02.70 | 4:40.15 | 112720 | 133734
8 | 29:43.10 | 4:57.08 | 133735 | 156017
9 | 34:40.18 | 4:08.29 | 156018 | 174646
10 | 38:48.47 | 3:23.51 | 174647 | 189922
11 | 42:12.23 | 4:33.72 | 189923 | 210469
12 | 46:46.20 | 5:02.64 | 210470 | 233183
13 | 51:49.09 | 3:12.56 | 233184 | 247639
14 | 55:01.65 | 3:44.16 | 247640 | 264455
Range status and errors
Selected range
Filename C:\Users\user\Desktop\Jan Vayne - Romantic Popsongs (8712715778007).wav
Peak level 98.9 %
Extraction speed 3.8 X
Range quality 100.0 %
Test CRC DDFB3B75
Copy CRC DDFB3B75
Copy OK
No errors occurred
AccurateRip summary
Track 1 not present in database
Track 2 not present in database
Track 3 not present in database
Track 4 not present in database
Track 5 not present in database
Track 6 not present in database
Track 7 not present in database
Track 8 not present in database
Track 9 not present in database
Track 10 not present in database
Track 11 not present in database
Track 12 not present in database
Track 13 not present in database
Track 14 not present in database
None of the tracks are present in the AccurateRip database
End of status report

1999. Paintings Of The Seasons [2CD]

Год выпуска диска : 1999
Производитель диска : Нидерланды
Аудио кодек : FLAC
Тип рипа : image+.cue (Test & Copy)
Битрейт аудио : lossless
Продолжительность : 55:53 / 19:53
Лейбл : De Haske Records
Каталожный номер : DHR 20 037 3 / DHR 20 043 3
Источник (релизер): Рип оригинального диска из личной коллекции
Сканы: прилагаются


CD1
01. Lente - Het Begin
02. Lente - De Groei
03. Zomer - De Bloei
04. Zomer - Harmonie
05. Zomer - Volgroeid
06. Herfst - Onrust
07. Herfst - Overgang
08. Herfst - Vallend Blad
09. Winter - Inkeer
10. Winter - Schemer
11. Winter - Licht
CD2
01. Prelude in C-mineur (Bach)
02. Pianoconcert KV 488 deel 2 - Adagio (Mozart)
03. Prelude in Des (Regenprelude) (Chopin)
04. Mondscheinsonate (Beethoven)

-

Лог создания рипа - CD1

Exact Audio Copy V1.0 beta 3 from 29. August 2011
EAC extraction logfile from 8. October 2012, 23:46
Jan Vayne / Paintings Of The Seasons CD1 (DHR 20 037 3)
Used drive : TSSTcorpCDDVDW TS-L633C Adapter: 2 ID: 0
Read mode : Secure
Utilize accurate stream : Yes
Defeat audio cache : Yes
Make use of C2 pointers : No
Read offset correction : 6
Overread into Lead-In and Lead-Out : No
Fill up missing offset samples with silence : Yes
Delete leading and trailing silent blocks : No
Null samples used in CRC calculations : Yes
Used interface : Native Win32 interface for Win NT & 2000
Used output format : Internal WAV Routines
Sample format : 44.100 Hz; 16 Bit; Stereo
TOC of the extracted CD
Track | Start | Length | Start sector | End sector
---------------------------------------------------------
1 | 0:00.00 | 2:09.52 | 0 | 9726
2 | 2:09.52 | 10:45.73 | 9727 | 58174
3 | 12:55.50 | 6:15.72 | 58175 | 86371
4 | 19:11.47 | 3:57.68 | 86372 | 104214
5 | 23:09.40 | 4:32.20 | 104215 | 124634
6 | 27:41.60 | 4:59.67 | 124635 | 147126
7 | 32:41.52 | 3:54.74 | 147127 | 164750
8 | 36:36.51 | 7:29.20 | 164751 | 198445
9 | 44:05.71 | 2:56.01 | 198446 | 211646
10 | 47:01.72 | 4:10.64 | 211647 | 230460
11 | 51:12.61 | 4:40.33 | 230461 | 251493
Range status and errors
Selected range
Filename C:\Users\user\Desktop\Jan Vayne - Paintings Of The Seasons CD1 (DHR 20 037 3).wav
Peak level 99.9 %
Extraction speed 3.7 X
Range quality 100.0 %
Test CRC EAC79EE7
Copy CRC EAC79EE7
Copy OK
No errors occurred
AccurateRip summary
Track 1 accurately ripped (confidence 1) [47C1D911] (AR v1)
Track 2 accurately ripped (confidence 1) [B37CE078] (AR v1)
Track 3 accurately ripped (confidence 1) [6E0A4A14] (AR v1)
Track 4 accurately ripped (confidence 1) [517D6628] (AR v1)
Track 5 accurately ripped (confidence 1) [8E6DF1C6] (AR v1)
Track 6 accurately ripped (confidence 1) [E4AA245F] (AR v1)
Track 7 accurately ripped (confidence 1) [3D639B80] (AR v1)
Track 8 accurately ripped (confidence 1) [F2291582] (AR v1)
Track 9 accurately ripped (confidence 1) [285FBCF8] (AR v1)
Track 10 accurately ripped (confidence 1) [7BAC062A] (AR v1)
Track 11 accurately ripped (confidence 1) [1843C8A0] (AR v1)
All tracks accurately ripped
End of status report

Лог создания рипа - CD2

Exact Audio Copy V1.0 beta 3 from 29. August 2011
EAC extraction logfile from 8. October 2012, 23:11
Jan Vayne / Paintings Of The Seasons CD2 (DHR 20 043 3)
Used drive : TSSTcorpCDDVDW TS-L633C Adapter: 2 ID: 0
Read mode : Secure
Utilize accurate stream : Yes
Defeat audio cache : Yes
Make use of C2 pointers : No
Read offset correction : 6
Overread into Lead-In and Lead-Out : No
Fill up missing offset samples with silence : Yes
Delete leading and trailing silent blocks : No
Null samples used in CRC calculations : Yes
Used interface : Native Win32 interface for Win NT & 2000
Used output format : Internal WAV Routines
Sample format : 44.100 Hz; 16 Bit; Stereo
TOC of the extracted CD
Track | Start | Length | Start sector | End sector
---------------------------------------------------------
1 | 0:00.00 | 5:12.34 | 0 | 23433
2 | 5:12.34 | 4:51.57 | 23434 | 45315
3 | 10:04.16 | 5:25.02 | 45316 | 69692
4 | 15:29.18 | 4:23.38 | 69693 | 89455
Range status and errors
Selected range
Filename C:\Users\user\Desktop\Jan Vayne - Paintings Of The Seasons CD2 (DHR 20 043 3).wav
Peak level 98.2 %
Extraction speed 1.5 X
Range quality 100.0 %
Test CRC 5A6EC3BD
Copy CRC 5A6EC3BD
Copy OK
No errors occurred
AccurateRip summary
Track 1 accurately ripped (confidence 1) [5049302F] (AR v1)
Track 2 accurately ripped (confidence 1) [AD7D35D6] (AR v1)
Track 3 accurately ripped (confidence 1) [CE7CFD68] (AR v1)
Track 4 accurately ripped (confidence 1) [8ACE9DC3] (AR v1)
All tracks accurately ripped
End of status report

1999. Media Plaza Movements

Год выпуска диска : 1999
Производитель диска : Нидерланды
Аудио кодек : FLAC
Тип рипа : image+.cue (Test & Copy)
Битрейт аудио : lossless
Продолжительность : 30:18
Лейбл : Gopher Productions / Vayne Music BV
Каталожный номер : отсутствует
Источник (релизер): Рип оригинального диска из личной коллекции
Сканы: прилагаются


01. Intro - Media Plaza
02. Het auditorium (Bach)
03. Roundcontrol (Mozart)
04. De arcade (Beethoven)
05. Internet Plaza (Schubert)
06. De shuttle (Chopin)
07. De media arena (Liszt)
08. Het sky theater (Debussy)
09. De huiskamer van de toekomst (Satie)
10. De skybar (Rachmaninoff)
11. Het medialab (F. Zappa)
12. Outro - Leaving Media Plaza
-

Лог создания рипа

Exact Audio Copy V1.0 beta 3 from 29. August 2011
EAC extraction logfile from 9. October 2012, 14:28
Jan Vayne / Media Plaza Movements
Used drive : TSSTcorpCDDVDW TS-L633C Adapter: 2 ID: 0
Read mode : Secure
Utilize accurate stream : Yes
Defeat audio cache : Yes
Make use of C2 pointers : No
Read offset correction : 6
Overread into Lead-In and Lead-Out : No
Fill up missing offset samples with silence : Yes
Delete leading and trailing silent blocks : No
Null samples used in CRC calculations : Yes
Used interface : Native Win32 interface for Win NT & 2000
Used output format : Internal WAV Routines
Sample format : 44.100 Hz; 16 Bit; Stereo
TOC of the extracted CD
Track | Start | Length | Start sector | End sector
---------------------------------------------------------
1 | 0:00.00 | 1:07.45 | 0 | 5069
2 | 1:07.45 | 2:42.74 | 5070 | 17293
3 | 3:50.44 | 2:17.73 | 17294 | 27641
4 | 6:08.42 | 2:31.74 | 27642 | 39040
5 | 8:40.41 | 2:30.28 | 39041 | 50318
6 | 11:10.69 | 2:33.72 | 50319 | 61865
7 | 13:44.66 | 2:21.31 | 61866 | 72471
8 | 16:06.22 | 3:51.67 | 72472 | 89863
9 | 19:58.14 | 4:33.69 | 89864 | 110407
10 | 24:32.08 | 3:03.66 | 110408 | 124198
11 | 27:35.74 | 1:33.09 | 124199 | 131182
12 | 29:09.08 | 1:09.57 | 131183 | 136414
Range status and errors
Selected range
Filename C:\Users\user\Desktop\Jan Vayne - Media Plaza Movements.wav
Peak level 99.9 %
Extraction speed 3.4 X
Range quality 100.0 %
Test CRC B1253D6A
Copy CRC B1253D6A
Copy OK
No errors occurred
AccurateRip summary
Track 1 not present in database
Track 2 not present in database
Track 3 not present in database
Track 4 not present in database
Track 5 not present in database
Track 6 not present in database
Track 7 not present in database
Track 8 not present in database
Track 9 not present in database
Track 10 not present in database
Track 11 not present in database
Track 12 not present in database
None of the tracks are present in the AccurateRip database
End of status report

2000. Metamorphosis

Год выпуска диска : 2000
Производитель диска : Нидерланды
Аудио кодек : FLAC
Тип рипа : image+.cue (Test & Copy)
Битрейт аудио : lossless
Продолжительность : 55:18
Лейбл : Dino Music
Каталожный номер : 87172195770478
Источник (релизер): Рип оригинального диска из личной коллекции
Сканы: прилагаются


01. Toccata & Fugue (Bach)
02. Summer Rain (Chopin)
03. Celebrate Life (Rachmaninoff / Chopin)
04. Lacrimosa (W. A. Mozart)
05. Enchanting Images (Moussorgsky / Mozart / Saint-Sans)
06. Inseparable Embrace (Mahler / Wagner)
07. Take Me Now (Bach)
08. Adagio (Albinoni)
09. Beethoven Rules (Beethoven)
10. Infinite Passion (Bach)
11. Celebrate Life (Rap Version)

-

Лог создания рипа

Exact Audio Copy V1.0 beta 3 from 29. August 2011
EAC extraction logfile from 9. October 2012, 8:58
Jan Vayne / Metamorphosis (87172195770478)
Used drive : TSSTcorpCDDVDW TS-L633C Adapter: 2 ID: 0
Read mode : Secure
Utilize accurate stream : Yes
Defeat audio cache : Yes
Make use of C2 pointers : No
Read offset correction : 6
Overread into Lead-In and Lead-Out : No
Fill up missing offset samples with silence : Yes
Delete leading and trailing silent blocks : No
Null samples used in CRC calculations : Yes
Used interface : Native Win32 interface for Win NT & 2000
Used output format : Internal WAV Routines
Sample format : 44.100 Hz; 16 Bit; Stereo
TOC of the extracted CD
Track | Start | Length | Start sector | End sector
---------------------------------------------------------
1 | 0:00.00 | 3:54.07 | 0 | 17556
2 | 3:54.07 | 5:32.60 | 17557 | 42516
3 | 9:26.67 | 5:20.10 | 42517 | 66526
4 | 14:47.02 | 4:10.40 | 66527 | 85316
5 | 18:57.42 | 5:08.05 | 85317 | 108421
6 | 24:05.47 | 4:59.55 | 108422 | 130901
7 | 29:05.27 | 5:22.18 | 130902 | 155069
8 | 34:27.45 | 4:08.10 | 155070 | 173679
9 | 38:35.55 | 5:13.00 | 173680 | 197154
10 | 43:48.55 | 6:11.52 | 197155 | 225031
11 | 50:00.32 | 5:18.33 | 225032 | 248914
Range status and errors
Selected range
Filename C:\Users\user\Desktop\Jan Vayne - Metamorphosis (87172195770478).wav
Peak level 98.8 %
Extraction speed 3.7 X
Range quality 100.0 %
Test CRC 46B8B2ED
Copy CRC 46B8B2ED
Copy OK
No errors occurred
AccurateRip summary
Track 1 accurately ripped (confidence 2) [B75B1E74] (AR v2)
Track 2 accurately ripped (confidence 2) [7D40D5A4] (AR v2)
Track 3 accurately ripped (confidence 2) [ADC0152A] (AR v2)
Track 4 accurately ripped (confidence 2) [4C1D04B8] (AR v2)
Track 5 accurately ripped (confidence 2) [07A662D5] (AR v2)
Track 6 accurately ripped (confidence 2) [44BAE826] (AR v2)
Track 7 accurately ripped (confidence 2) [8CD7630B] (AR v2)
Track 8 accurately ripped (confidence 2) [EB2779F4] (AR v2)
Track 9 accurately ripped (confidence 2) [4AF4AA80] (AR v2)
Track 10 accurately ripped (confidence 2) [E858ED57] (AR v2)
Track 11 accurately ripped (confidence 2) [07254D78] (AR v2)
All tracks accurately ripped
End of status report

2003. Jan Vayne speelt psalmen

Год выпуска диска : 2003
Производитель диска : Нидерланды
Аудио кодек : FLAC
Тип рипа : image+.cue (Test & Copy)
Битрейт аудио : lossless
Продолжительность : 50:20
Лейбл : Sabra Music
Каталожный номер : 8717092000635
Источник (релизер): Рип оригинального диска из личной коллекции
Сканы: прилагаются


01. De Heer is mijn herder [Psalm 23]
02. God heb ik lief [Psalm 116]
03. Uit diepten van ellenden [Psalm 130]
04. Evenals een moede hinde [Psalm 42]
05. U alleen U loven wij [Psalm 75]
06. Zing mijn ziel voor God uw Here [Psalm 146]
07. Gij dienaars aan den heer gewijd [Psalm 134]
08. Komt nu met zang en roert de snaren [Psalm 33]
09. Steekt nu voor God de loftrompet [Psalm 95]
10. De stilte zingt U toe o Here [Psalm 65]
11. God enkel licht [Gezang 449]
12. De Heer is mijn herder (#2) [Psalm 23]

-

Лог создания рипа

Exact Audio Copy V1.0 beta 3 from 29. August 2011
EAC extraction logfile from 27. November 2012, 20:56
Jan Vayne / Jan Vayne speelt psalmen (8717092000635)
Used drive : TSSTcorpCDDVDW TS-L633C Adapter: 2 ID: 0
Read mode : Secure
Utilize accurate stream : Yes
Defeat audio cache : Yes
Make use of C2 pointers : No
Read offset correction : 6
Overread into Lead-In and Lead-Out : No
Fill up missing offset samples with silence : Yes
Delete leading and trailing silent blocks : No
Null samples used in CRC calculations : Yes
Used interface : Native Win32 interface for Win NT & 2000
Used output format : Internal WAV Routines
Sample format : 44.100 Hz; 16 Bit; Stereo
TOC of the extracted CD
Track | Start | Length | Start sector | End sector
---------------------------------------------------------
1 | 0:00.00 | 2:17.26 | 0 | 10300
2 | 2:17.26 | 3:34.39 | 10301 | 26389
3 | 5:51.65 | 5:13.67 | 26390 | 49931
4 | 11:05.57 | 4:19.05 | 49932 | 69361
5 | 15:24.62 | 3:41.22 | 69362 | 85958
6 | 19:06.09 | 4:58.06 | 85959 | 108314
7 | 24:04.15 | 3:56.45 | 108315 | 126059
8 | 28:00.60 | 3:44.03 | 126060 | 142862
9 | 31:44.63 | 4:05.03 | 142863 | 161240
10 | 35:49.66 | 7:03.02 | 161241 | 192967
11 | 42:52.68 | 3:56.43 | 192968 | 210710
12 | 46:49.36 | 3:31.65 | 210711 | 226600
Range status and errors
Selected range
Filename C:\Users\user\Desktop\Jan Vayne - Jan Vayne speelt psalmen (8717092000635).wav
Peak level 98.9 %
Extraction speed 1.2 X
Range quality 100.0 %
Test CRC D3F1C550
Copy CRC D3F1C550
Copy OK
No errors occurred
AccurateRip summary
Track 1 accurately ripped (confidence 1) [AC4F73B6] (AR v1)
Track 2 accurately ripped (confidence 1) [067F2B22] (AR v1)
Track 3 accurately ripped (confidence 1) [E4A30AF4] (AR v1)
Track 4 accurately ripped (confidence 1) [2CCE9825] (AR v1)
Track 5 accurately ripped (confidence 1) [1FD8E7A8] (AR v1)
Track 6 accurately ripped (confidence 1) [AC97D1C0] (AR v1)
Track 7 accurately ripped (confidence 1) [90C1DDE3] (AR v1)
Track 8 accurately ripped (confidence 1) [7715F87F] (AR v1)
Track 9 accurately ripped (confidence 1) [3490ECF8] (AR v1)
Track 10 accurately ripped (confidence 1) [B60C5432] (AR v1)
Track 11 accurately ripped (confidence 1) [33D2E246] (AR v1)
Track 12 accurately ripped (confidence 1) [69FD2FD1] (AR v1)
All tracks accurately ripped
End of status report

2004. Vivaldi & Handel {Holland Boys Choir & Jan Vayne}

Год выпуска диска : 2004
Производитель диска : Нидерланды
Аудио кодек : FLAC
Тип рипа : image+.cue (Test & Copy)
Битрейт аудио : lossless
Продолжительность : 55:58
Лейбл : Amsterdam Classics
Каталожный номер : 8713952000166
Источник (релизер): Рип оригинального диска из личной коллекции
Сканы: прилагаются


Handel : Water Music & The Messiah
01. Hornpipe
02. And the Glory
03. Comfort Ye
04. He Shall Feed His Flock - Jan Vayne
05. Air
06. Surely
07. Jig
08. How Beautiful Are the Feet - Jan Vayne
09. Since by Man Came Death
10. Thou Shalt Break Them
11. Hallelujah
Vivaldi : 4 Jaargetijden & Gloria in D
12. La primavera - Jan Vayne
13. Gloria
14. Et in terra pax
15. L'estate I
16. L'estate II - Jan Vayne
17. Domine Deus
18. Domine fili
19. L'autunno - Jan Vayne
20. Qui tollis peccata
21. L'inverno - Jan Vayne
22. Quoniam tu solus
23. Cum Sancto Spiritu
-

Лог создания рипа

Exact Audio Copy V1.0 beta 3 from 29. August 2011
EAC extraction logfile from 14. February 2014, 21:54
Holland Boys Choir / Vivaldi & Handel
Used drive : TSSTcorpCDDVDW SN-S082N Adapter: 3 ID: 0
Read mode : Secure
Utilize accurate stream : Yes
Defeat audio cache : Yes
Make use of C2 pointers : No
Read offset correction : 6
Overread into Lead-In and Lead-Out : No
Fill up missing offset samples with silence : Yes
Delete leading and trailing silent blocks : No
Null samples used in CRC calculations : Yes
Used interface : Native Win32 interface for Win NT & 2000
Used output format : Internal WAV Routines
Sample format : 44.100 Hz; 16 Bit; Stereo
TOC of the extracted CD
Track | Start | Length | Start sector | End sector
---------------------------------------------------------
1 | 0:00.00 | 1:13.66 | 0 | 5540
2 | 1:13.66 | 2:58.68 | 5541 | 18958
3 | 4:12.59 | 3:09.62 | 18959 | 33195
4 | 7:22.46 | 2:32.56 | 33196 | 44651
5 | 9:55.27 | 1:34.20 | 44652 | 51721
6 | 11:29.47 | 1:50.40 | 51722 | 60011
7 | 13:20.12 | 0:57.10 | 60012 | 64296
8 | 14:17.22 | 1:08.40 | 64297 | 69436
9 | 15:25.62 | 1:59.18 | 69437 | 78379
10 | 17:25.05 | 2:03.11 | 78380 | 87615
11 | 19:28.16 | 3:43.41 | 87616 | 104381
12 | 23:11.57 | 2:17.56 | 104382 | 114712
13 | 25:29.38 | 2:19.05 | 114713 | 125142
14 | 27:48.43 | 4:35.19 | 125143 | 145786
15 | 32:23.62 | 2:32.38 | 145787 | 157224
16 | 34:56.25 | 2:42.16 | 157225 | 169390
17 | 37:38.41 | 3:53.46 | 169391 | 186911
18 | 41:32.12 | 2:18.54 | 186912 | 197315
19 | 43:50.66 | 3:26.18 | 197316 | 212783
20 | 47:17.09 | 1:00.72 | 212784 | 217355
21 | 48:18.06 | 4:11.11 | 217356 | 236191
22 | 52:29.17 | 0:46.04 | 236192 | 239645
23 | 53:15.21 | 2:53.54 | 239646 | 252674
Range status and errors
Selected range
Filename D:\TorrentShare\Jan Vayne - Collection (FLAC) (by italia57)\2004. Vivaldi & Handel\Holland Boys Choir - Vivaldi & Handel (8713952000166).wav
Peak level 99.1 %
Extraction speed 4.1 X
Range quality 100.0 %
Test CRC ED0B0283
Copy CRC ED0B0283
Copy OK
No errors occurred
AccurateRip summary
Track 1 not present in database
Track 2 not present in database
Track 3 not present in database
Track 4 not present in database
Track 5 not present in database
Track 6 not present in database
Track 7 not present in database
Track 8 not present in database
Track 9 not present in database
Track 10 not present in database
Track 11 not present in database
Track 12 not present in database
Track 13 not present in database
Track 14 not present in database
Track 15 not present in database
Track 16 not present in database
Track 17 not present in database
Track 18 not present in database
Track 19 not present in database
Track 20 not present in database
Track 21 not present in database
Track 22 not present in database
Track 23 not present in database
None of the tracks are present in the AccurateRip database
End of status report
---- CUETools DB Plugin V2.1.4
[CTDB TOCID: ekLNmlTx2dmHbvA2ZdeN74R_5tw-] disk not present in database
Submit result: ekLNmlTx2dmHbvA2ZdeN74R_5tw- has been uploaded
==== Log checksum B252E49284CCAB3604065F04C1D0473A26A1539A0EC1EEC815B7DB54B5B31C79 ====

2004. Christmas Carols {Urker Mannen Ensemble & Jan Vayne - Feat. Louis van Dijk}

Год выпуска диска : 2004
Производитель диска : Нидерланды
Аудио кодек : FLAC
Тип рипа : image+.cue (Test & Copy)
Битрейт аудио : lossless
Продолжительность : 52:00
Лейбл : Amsterdam Classics
Каталожный номер : 8713952000166
Источник (релизер): Рип оригинального диска из личной коллекции
Сканы: прилагаются


01. And the Glory of the Lord (Handel)
02. Stille Nacht, Heilige Nacht
03. Es ist ein Ros' entsprungen
04. O Kindeke klein
05. Nu zijt wellekome
06. Christmastide
07. Rose of Christmas
08. Hoe leit dit Kindeke
09. Ik kniel aan Uwe kribbe neer
10. Carol, Brother's, Carol
11. We've Got Goodnews to Tell
12. Christmas Carol
13. Carol, Brother's, Carol
14. Whisper! Baby Born To-day!
15. Imagine (Lennon)
16. Go Tell It On the Mountain
17. For All We Know / Cent mille chansons (Jan Vayne & Louis van Dijk)
-

Лог создания рипа

Exact Audio Copy V1.0 beta 3 from 29. August 2011
EAC extraction logfile from 15. February 2014, 0:10
Urker Mannen Ensemble & Jan Vayne / Christmas Carols
Used drive : TSSTcorpCDDVDW SN-S082N Adapter: 3 ID: 0
Read mode : Secure
Utilize accurate stream : Yes
Defeat audio cache : Yes
Make use of C2 pointers : No
Read offset correction : 6
Overread into Lead-In and Lead-Out : No
Fill up missing offset samples with silence : Yes
Delete leading and trailing silent blocks : No
Null samples used in CRC calculations : Yes
Used interface : Native Win32 interface for Win NT & 2000
Used output format : Internal WAV Routines
Sample format : 44.100 Hz; 16 Bit; Stereo
TOC of the extracted CD
Track | Start | Length | Start sector | End sector
---------------------------------------------------------
1 | 0:00.00 | 3:14.32 | 0 | 14581
2 | 3:14.32 | 3:25.45 | 14582 | 30001
3 | 6:40.02 | 2:17.60 | 30002 | 40336
4 | 8:57.62 | 3:45.73 | 40337 | 57284
5 | 12:43.60 | 1:53.62 | 57285 | 65821
6 | 14:37.47 | 3:13.30 | 65822 | 80326
7 | 17:51.02 | 4:07.45 | 80327 | 98896
8 | 21:58.47 | 3:04.35 | 98897 | 112731
9 | 25:03.07 | 2:11.33 | 112732 | 122589
10 | 27:14.40 | 3:02.05 | 122590 | 136244
11 | 30:16.45 | 2:07.32 | 136245 | 145801
12 | 32:24.02 | 1:54.28 | 145802 | 154379
13 | 34:18.30 | 1:21.70 | 154380 | 160524
14 | 35:40.25 | 2:12.25 | 160525 | 170449
15 | 37:52.50 | 1:46.25 | 170450 | 178424
16 | 39:39.00 | 2:24.37 | 178425 | 189261
17 | 42:03.37 | 10:05.70 | 189262 | 234706
Range status and errors
Selected range
Filename D:\TorrentShare\Jan Vayne - Collection (FLAC) (by italia57)\2004. Christmas Carols\Urker Mannen Ensemble & Jan Vayne - Christmas Carols (8713952000166).wav
Peak level 98.8 %
Extraction speed 1.1 X
Range quality 99.9 %
Test CRC 58D2CCD3
Copy CRC 58D2CCD3
Copy OK
No errors occurred
AccurateRip summary
Track 1 not present in database
Track 2 not present in database
Track 3 not present in database
Track 4 not present in database
Track 5 not present in database
Track 6 not present in database
Track 7 not present in database
Track 8 not present in database
Track 9 not present in database
Track 10 not present in database
Track 11 not present in database
Track 12 not present in database
Track 13 not present in database
Track 14 not present in database
Track 15 not present in database
Track 16 not present in database
Track 17 not present in database
None of the tracks are present in the AccurateRip database
End of status report
---- CUETools DB Plugin V2.1.4
[CTDB TOCID: z58lexQ8ageoL5MsGzkpttxmArk-] disk not present in database
Submit result: z58lexQ8ageoL5MsGzkpttxmArk- has been uploaded
==== Log checksum 10073B60837AD6DA41AC7528BB24E8467E68BD28C86160FBCABC9A12EC9020DD ====

2007. Goed gemaakt (Amstel Beer)

Год выпуска диска : 2007
Производитель диска : Нидерланды
Аудио кодек : FLAC
Тип рипа : image+.cue (Test & Copy)
Битрейт аудио : lossless
Продолжительность : 48:54
Лейбл :
Каталожный номер : 8717092002837
Источник (релизер): Рип оригинального диска из личной коллекции
Сканы: прилагаются


01. If You Don't Know Me by Now
02. A ma mère (Francescatti)
03. Mondscheinsonate (Beethoven)
04. Prélude fuge et variation (Franck)
05. Sorry Seems to Be the Hardest Word
06. Air (J. S. Bach)
07. Liebestraum (F. Liszt)
08. Lied ohne Worte (Mendelssohn-Bartholdy)
09. (Everything I Do) I Do It for You
10. Siciliano (Bach)
11. Adagio (Albinoni)
12. Lied ohne Worte 2 (Mendelssohn-Bartholdy)

-

Лог создания рипа

Exact Audio Copy V1.0 beta 3 from 29. August 2011
EAC extraction logfile from 8. October 2012, 22:12
Jan Vayne / Goed gemaakt (8717092002837)
Used drive : TSSTcorpCDDVDW TS-L633C Adapter: 2 ID: 0
Read mode : Secure
Utilize accurate stream : Yes
Defeat audio cache : Yes
Make use of C2 pointers : No
Read offset correction : 6
Overread into Lead-In and Lead-Out : No
Fill up missing offset samples with silence : Yes
Delete leading and trailing silent blocks : No
Null samples used in CRC calculations : Yes
Used interface : Native Win32 interface for Win NT & 2000
Used output format : Internal WAV Routines
Sample format : 44.100 Hz; 16 Bit; Stereo
TOC of the extracted CD
Track | Start | Length | Start sector | End sector
---------------------------------------------------------
1 | 0:00.00 | 4:10.12 | 0 | 18761
2 | 4:10.12 | 2:40.62 | 18762 | 30823
3 | 6:50.74 | 3:33.28 | 30824 | 46826
4 | 10:24.27 | 4:01.24 | 46827 | 64925
5 | 14:25.51 | 4:36.61 | 64926 | 85686
6 | 19:02.37 | 4:34.18 | 85687 | 106254
7 | 23:36.55 | 4:24.36 | 106255 | 126090
8 | 28:01.16 | 3:59.62 | 126091 | 144077
9 | 32:01.03 | 4:30.29 | 144078 | 164356
10 | 36:31.32 | 2:57.25 | 164357 | 177656
11 | 39:28.57 | 3:08.52 | 177657 | 191808
12 | 42:37.34 | 6:17.02 | 191809 | 220085
Range status and errors
Selected range
Filename C:\Users\user\Desktop\Jan Vayne - Goed gemaakt (8717092002837).wav
Peak level 94.2 %
Extraction speed 3.6 X
Range quality 100.0 %
Test CRC 3C981DAB
Copy CRC 3C981DAB
Copy OK
No errors occurred
AccurateRip summary
Track 1 accurately ripped (confidence 3) [EC94FEBE] (AR v1)
Track 2 accurately ripped (confidence 3) [96D2A523] (AR v1)
Track 3 accurately ripped (confidence 3) [478F632C] (AR v1)
Track 4 accurately ripped (confidence 3) [4799DA8A] (AR v1)
Track 5 accurately ripped (confidence 3) [395C15F1] (AR v1)
Track 6 accurately ripped (confidence 3) [809442D6] (AR v1)
Track 7 accurately ripped (confidence 3) [3DF976FB] (AR v1)
Track 8 accurately ripped (confidence 3) [5365867E] (AR v1)
Track 9 accurately ripped (confidence 3) [A2A158EF] (AR v1)
Track 10 accurately ripped (confidence 3) [D2068C30] (AR v1)
Track 11 accurately ripped (confidence 3) [4D1D1B92] (AR v1)
Track 12 accurately ripped (confidence 3) [7B82E27B] (AR v1)
All tracks accurately ripped
End of status report

2007. Twee klaviervirtuozen in concert [Jan Vayne & Martin Mans]

Год выпуска диска : 2007
Производитель диска : Нидерланды
Аудио кодек : FLAC
Тип рипа : image+.cue (Test & Copy)
Битрейт аудио : lossless
Продолжительность : 67:46
Лейбл : Wipe Productions
Каталожный номер : 8714069081161 | WPR970124
Источник (релизер): Рип оригинального диска из личной коллекции
Сканы: прилагаются


01. The Phantom of the Opera
02. Finlandia (Sibelius)
03. Triomfmars uit Aida (Verdi)
04. Thema's van Bach
05. Air (Bach)
06. Thema's van Bach
07. Badinerie (Bach)
08. Improvisatie op verzoek 1
09. Once upon a time in the West (Morricone)
10. Improvisatie over populaire klassiekers
11. The Last of the Mohicans
12. Improvisatie op verzoek 2
13. Improvisatie over volksliedjes
14. The Stars and Stripes (Sousa)
-

Лог создания рипа

Exact Audio Copy V1.0 beta 3 from 29. August 2011
EAC extraction logfile from 29. July 2013, 10:46
Jan Vayne & Martin Mans / Twee klaviervirtuozen in concert (WPR970124)
Used drive : TSSTcorpCDDVDW TS-L633C Adapter: 2 ID: 0
Read mode : Secure
Utilize accurate stream : Yes
Defeat audio cache : Yes
Make use of C2 pointers : No
Read offset correction : 6
Overread into Lead-In and Lead-Out : No
Fill up missing offset samples with silence : Yes
Delete leading and trailing silent blocks : No
Null samples used in CRC calculations : Yes
Used interface : Native Win32 interface for Win NT & 2000
Used output format : Internal WAV Routines
Sample format : 44.100 Hz; 16 Bit; Stereo
TOC of the extracted CD
Track | Start | Length | Start sector | End sector
---------------------------------------------------------
1 | 0:00.00 | 3:28.46 | 0 | 15645
2 | 3:28.46 | 4:36.22 | 15646 | 36367
3 | 8:04.68 | 2:55.09 | 36368 | 49501
4 | 11:00.02 | 3:51.72 | 49502 | 66898
5 | 14:51.74 | 4:07.47 | 66899 | 85470
6 | 18:59.46 | 2:24.55 | 85471 | 96325
7 | 21:24.26 | 1:28.69 | 96326 | 102994
8 | 22:53.20 | 11:46.48 | 102995 | 155992
9 | 34:39.68 | 3:37.10 | 155993 | 172277
10 | 38:17.03 | 9:22.63 | 172278 | 214490
11 | 47:39.66 | 3:21.36 | 214491 | 229601
12 | 51:01.27 | 5:00.13 | 229602 | 252114
13 | 56:01.40 | 8:21.42 | 252115 | 289731
14 | 64:23.07 | 3:23.31 | 289732 | 304987
Range status and errors
Selected range
Filename D:\Jan Vayne & Martin Mans - Twee klaviervirtuozen in concert (WPR970124).wav
Peak level 95.4 %
Extraction speed 4.1 X
Range quality 100.0 %
Test CRC CACD82E9
Copy CRC CACD82E9
Copy OK
No errors occurred
AccurateRip summary
Track 1 not present in database
Track 2 not present in database
Track 3 not present in database
Track 4 not present in database
Track 5 not present in database
Track 6 not present in database
Track 7 not present in database
Track 8 not present in database
Track 9 not present in database
Track 10 not present in database
Track 11 not present in database
Track 12 not present in database
Track 13 not present in database
Track 14 not present in database
None of the tracks are present in the AccurateRip database
End of status report
---- CUETools DB Plugin V2.1.4
[CTDB TOCID: l1IMXlraNeNz5l0olrzOgywo82k-] disk not present in database
Submit result: l1IMXlraNeNz5l0olrzOgywo82k- has been uploaded
==== Log checksum 1038DEFCD9428D7728389E60EC36B15B9CB3F61C8EEE1B41C3A94522005C5440 ====

2008. Twee klaviervirtuozen in concert 2 [Jan Vayne & Martin Mans]

Год выпуска диска : 2008
Производитель диска : Нидерланды
Аудио кодек : FLAC
Тип рипа : image+.cue (Test & Copy)
Битрейт аудио : lossless
Продолжительность : 65:50
Лейбл : Wipe Productions
Каталожный номер : 8714069802209 | WPR980220
Источник (релизер): Рип оригинального диска из личной коллекции
Сканы: прилагаются


01. Music
02. Thema's van Morricone
03. Raiders of the Lost Ark (Williams)
04. Nearer My God to Thee (Bethany) (Mason)
05. Toccata Suite Gottique (Boëlman)
06. Siciliano (Bach)
07. Second Waltz (Chostakovitz)
08. You Raise Me Up
09. Improvisatie 'A toi la gloire' (Handel)
10. Conquest of Paradise (Vangelis)
11. Improvisatie (La chanson des vieux amants/Ik hou van jou)
12. The Rhythm of Life (Coleman)
13. Radetzky March (Strauss)
14. Improvisatie 'In Holland staat een huis'
15. When the Saints Go Marching In
16. Abide With Me (Eventide) (Monk)
17. Petersburger Schlittenfahrt (Eilenburg)

-

Лог создания рипа

Exact Audio Copy V1.0 beta 3 from 29. August 2011
EAC extraction logfile from 29. July 2013, 12:53
Jan Vayne & Martin Mans / Twee klaviervirtuozen in concert 2 (WPR980220)
Used drive : TSSTcorpCDDVDW TS-L633C Adapter: 2 ID: 0
Read mode : Secure
Utilize accurate stream : Yes
Defeat audio cache : Yes
Make use of C2 pointers : No
Read offset correction : 6
Overread into Lead-In and Lead-Out : No
Fill up missing offset samples with silence : Yes
Delete leading and trailing silent blocks : No
Null samples used in CRC calculations : Yes
Used interface : Native Win32 interface for Win NT & 2000
Used output format : Internal WAV Routines
Sample format : 44.100 Hz; 16 Bit; Stereo
TOC of the extracted CD
Track | Start | Length | Start sector | End sector
---------------------------------------------------------
1 | 0:00.00 | 5:17.40 | 0 | 23814
2 | 5:17.40 | 6:26.48 | 23815 | 52812
3 | 11:44.13 | 2:19.65 | 52813 | 63302
4 | 14:04.03 | 3:52.64 | 63303 | 80766
5 | 17:56.67 | 3:41.52 | 80767 | 97393
6 | 21:38.44 | 2:10.62 | 97394 | 107205
7 | 23:49.31 | 2:53.53 | 107206 | 120233
8 | 26:43.09 | 4:31.43 | 120234 | 140601
9 | 31:14.52 | 5:22.42 | 140602 | 164793
10 | 36:37.19 | 4:28.19 | 164794 | 184912
11 | 41:05.38 | 4:32.35 | 184913 | 205347
12 | 45:37.73 | 3:28.43 | 205348 | 220990
13 | 49:06.41 | 2:40.43 | 220991 | 233033
14 | 51:47.09 | 4:48.64 | 233034 | 254697
15 | 56:35.73 | 2:29.49 | 254698 | 265921
16 | 59:05.47 | 3:52.68 | 265922 | 283389
17 | 62:58.40 | 2:52.12 | 283390 | 296301
Range status and errors
Selected range
Filename D:\Jan Vayne & Martin Mans - Twee klaviervirtuozen in concert 2 (WPR980220).wav
Peak level 96.5 %
Extraction speed 4.0 X
Range quality 100.0 %
Test CRC 79400D45
Copy CRC 79400D45
Copy OK
No errors occurred
AccurateRip summary
Track 1 accurately ripped (confidence 1) [E7D01506] (AR v1)
Track 2 accurately ripped (confidence 1) [E9F1E083] (AR v1)
Track 3 accurately ripped (confidence 1) [9F9C1C55] (AR v1)
Track 4 accurately ripped (confidence 1) [1990D8D7] (AR v1)
Track 5 accurately ripped (confidence 1) [91ADF361] (AR v1)
Track 6 accurately ripped (confidence 1) [C4A3F2B7] (AR v1)
Track 7 accurately ripped (confidence 1) [D3E2EDEB] (AR v1)
Track 8 accurately ripped (confidence 1) [76303C03] (AR v1)
Track 9 accurately ripped (confidence 1) [7C36D625] (AR v1)
Track 10 accurately ripped (confidence 1) [96240EEE] (AR v1)
Track 11 accurately ripped (confidence 1) [504E5156] (AR v1)
Track 12 accurately ripped (confidence 1) [7BA172A3] (AR v1)
Track 13 accurately ripped (confidence 1) [5116360F] (AR v1)
Track 14 accurately ripped (confidence 1) [8A45B8DA] (AR v1)
Track 15 accurately ripped (confidence 1) [EC388712] (AR v1)
Track 16 accurately ripped (confidence 1) [AA79F47D] (AR v1)
Track 17 accurately ripped (confidence 1) [070E4A09] (AR v1)
All tracks accurately ripped
End of status report
---- CUETools DB Plugin V2.1.4
[CTDB TOCID: Y894FPoe0RGGBdhOgxU4e2GTi.I-] found
Submit result: already submitted
Track | CTDB Status
1 | (1/1) Accurately ripped
2 | (1/1) Accurately ripped
3 | (1/1) Accurately ripped
4 | (1/1) Accurately ripped
5 | (1/1) Accurately ripped
6 | (1/1) Accurately ripped
7 | (1/1) Accurately ripped
8 | (1/1) Accurately ripped
9 | (1/1) Accurately ripped
10 | (1/1) Accurately ripped
11 | (1/1) Accurately ripped
12 | (1/1) Accurately ripped
13 | (1/1) Accurately ripped
14 | (1/1) Accurately ripped
15 | (1/1) Accurately ripped
16 | (1/1) Accurately ripped
17 | (1/1) Accurately ripped
==== Log checksum A31FA1B7F66CB79866661DFCB7E7F38448025F42BF58A69F39D1038E5FA22DDA ====

2008. Kerstconcert {Holland Boys Choir & Jan Vayne - Feat. Louis van Dijk}

Год выпуска диска : 2008
Производитель диска : Нидерланды
Аудио кодек : FLAC
Тип рипа : image+.cue (Test & Copy)
Битрейт аудио : lossless
Продолжительность : 66:06
Лейбл : Amsterdam Classics
Каталожный номер : 8713952000043
Источник (релизер): Рип оригинального диска из личной коллекции
Сканы: прилагаются


01. Hoe leit dit Kindeke
02. Stille Nacht, Heilige Nacht
03. Es ist ein Ros' entsprungen
04. Sanctus (Gounod)
05. The First Nowell
06. Gloria in excelsis Deo!
07. Christmastide
08. Good King Wenceslas
09. Christmas Rose
10. O Kindeke klein
11. Cantique de Noel
12. Ik kniel aan Uwe kribbe neer
13. Carol, Brother's, Carol
14. The Infant King
15. God Rest You Merry, Gentlemen
16. Good Tidings!
17. Whisper! Baby Born To-day!
18. Imagine (Lennon)
19. Die Himmeln erzählen (Haydn)
20. For All We Know / Cent mille chansons (Jan Vayne & Louis van Dijk)
-

Лог создания рипа

Exact Audio Copy V1.0 beta 3 from 29. August 2011
EAC extraction logfile from 14. February 2014, 23:07
Holland Boys Choir & Jan Vayne / Kerstconcert
Used drive : TSSTcorpCDDVDW TS-L633C Adapter: 2 ID: 0
Read mode : Secure
Utilize accurate stream : Yes
Defeat audio cache : Yes
Make use of C2 pointers : No
Read offset correction : 6
Overread into Lead-In and Lead-Out : No
Fill up missing offset samples with silence : Yes
Delete leading and trailing silent blocks : No
Null samples used in CRC calculations : Yes
Used interface : Native Win32 interface for Win NT & 2000
Used output format : Internal WAV Routines
Sample format : 44.100 Hz; 16 Bit; Stereo
TOC of the extracted CD
Track | Start | Length | Start sector | End sector
---------------------------------------------------------
1 | 0:00.00 | 3:04.47 | 0 | 13846
2 | 3:04.47 | 3:28.22 | 13847 | 29468
3 | 6:32.69 | 2:09.11 | 29469 | 39154
4 | 8:42.05 | 4:26.47 | 39155 | 59151
5 | 13:08.52 | 3:31.00 | 59152 | 74976
6 | 16:39.52 | 1:42.15 | 74977 | 82641
7 | 18:21.67 | 3:12.45 | 82642 | 97086
8 | 21:34.37 | 3:11.03 | 97087 | 111414
9 | 24:45.40 | 4:00.14 | 111415 | 129428
10 | 28:45.54 | 4:20.66 | 129429 | 148994
11 | 33:06.45 | 3:34.35 | 148995 | 165079
12 | 36:41.05 | 2:12.55 | 165080 | 175034
13 | 38:53.60 | 3:28.52 | 175035 | 190686
14 | 42:22.37 | 2:17.63 | 190687 | 201024
15 | 44:40.25 | 1:54.25 | 201025 | 209599
16 | 46:34.50 | 1:21.70 | 209600 | 215744
17 | 47:56.45 | 2:12.25 | 215745 | 225669
18 | 50:08.70 | 1:47.37 | 225670 | 233731
19 | 51:56.32 | 4:13.73 | 233732 | 252779
20 | 56:10.30 | 10:05.70 | 252780 | 298224
Range status and errors
Selected range
Filename D:\TorrentShare\Jan Vayne - Collection (FLAC) (by italia57)\2008. Kerstconcert\Holland Boys Choir & Jan Vayne - Kerstconcert (8713952000043).wav
Peak level 98.8 %
Extraction speed 3.7 X
Range quality 100.0 %
Test CRC E0360DCA
Copy CRC E0360DCA
Copy OK
No errors occurred
AccurateRip summary
Track 1 not present in database
Track 2 not present in database
Track 3 not present in database
Track 4 not present in database
Track 5 not present in database
Track 6 not present in database
Track 7 not present in database
Track 8 not present in database
Track 9 not present in database
Track 10 not present in database
Track 11 not present in database
Track 12 not present in database
Track 13 not present in database
Track 14 not present in database
Track 15 not present in database
Track 16 not present in database
Track 17 not present in database
Track 18 not present in database
Track 19 not present in database
Track 20 not present in database
None of the tracks are present in the AccurateRip database
End of status report
---- CUETools DB Plugin V2.1.4
[CTDB TOCID: 8SBVNsh032jW76bDC_9.IQn78Qk-] disk not present in database
Submit result: 8SBVNsh032jW76bDC_9.IQn78Qk- has been uploaded
==== Log checksum 73353F6953E6DFFC242771B6B064587B5B73D142DB918CCBD9C5638A33A01EDA ====

2009. Psalms & Hymns

Год выпуска диска : 2009
Производитель диска : Нидерланды
Аудио кодек : FLAC
Тип рипа : image+.cue (Test & Copy)
Битрейт аудио : lossless
Продолжительность : 60:57
Лейбл : Pulse Concerts BV
Каталожный номер : 8717953016607
Источник (релизер): Рип оригинального диска из личной коллекции
Сканы: прилагаются


01. Who Is on the Lord's Side?
02. All Things Bright and Beautiful
03. Een lied over een zijn
04. Improvisatie over Hymns
05. Be Still
06. Praise to the Lord
07. Dear Lord and Father of Mankind
08. O God, Whom I Delight to Praise
09. Samenzang Psalm 150:1 en 2
10. One Clear Voice
11. De Handtekening van de Heer
12. Improvisatie over Psalmmelodieen
13. For All the Saints
14. All Things Work Together for Good
15. Leven als bomen, Wie gaf ons een plaats op aarde
16. Total Praise
-

Лог создания рипа

Exact Audio Copy V1.0 beta 3 from 29. August 2011
EAC extraction logfile from 14. February 2014, 22:34
Jan Vayne / Psalms & Hymns
Used drive : TSSTcorpCDDVDW SN-S082N Adapter: 3 ID: 0
Read mode : Secure
Utilize accurate stream : Yes
Defeat audio cache : Yes
Make use of C2 pointers : No
Read offset correction : 6
Overread into Lead-In and Lead-Out : No
Fill up missing offset samples with silence : Yes
Delete leading and trailing silent blocks : No
Null samples used in CRC calculations : Yes
Used interface : Native Win32 interface for Win NT & 2000
Used output format : Internal WAV Routines
Sample format : 44.100 Hz; 16 Bit; Stereo
TOC of the extracted CD
Track | Start | Length | Start sector | End sector
---------------------------------------------------------
1 | 0:00.00 | 3:50.24 | 0 | 17273
2 | 3:50.24 | 2:27.04 | 17274 | 28302
3 | 6:17.28 | 3:19.11 | 28303 | 43238
4 | 9:36.39 | 6:19.74 | 43239 | 71737
5 | 15:56.38 | 3:20.60 | 71738 | 86797
6 | 19:17.23 | 3:34.52 | 86798 | 102899
7 | 22:52.00 | 3:29.04 | 102900 | 118578
8 | 26:21.04 | 2:57.03 | 118579 | 131856
9 | 29:18.07 | 2:16.39 | 131857 | 142095
10 | 31:34.46 | 3:55.34 | 142096 | 159754
11 | 35:30.05 | 3:19.52 | 159755 | 174731
12 | 38:49.57 | 6:09.70 | 174732 | 202476
13 | 44:59.52 | 4:29.06 | 202477 | 222657
14 | 49:28.58 | 2:57.45 | 222658 | 235977
15 | 52:26.28 | 5:17.29 | 235978 | 259781
16 | 57:43.57 | 3:20.01 | 259782 | 274782
Range status and errors
Selected range
Filename D:\TorrentShare\Jan Vayne - Collection (FLAC) (by italia57)\2009. Psalms & Hymns\Jan Vayne - Psalms & Hymns (8717953016607).wav
Peak level 100.0 %
Extraction speed 4.2 X
Range quality 100.0 %
Test CRC 6FD986F4
Copy CRC 6FD986F4
Copy OK
No errors occurred
AccurateRip summary
Track 1 not present in database
Track 2 not present in database
Track 3 not present in database
Track 4 not present in database
Track 5 not present in database
Track 6 not present in database
Track 7 not present in database
Track 8 not present in database
Track 9 not present in database
Track 10 not present in database
Track 11 not present in database
Track 12 not present in database
Track 13 not present in database
Track 14 not present in database
Track 15 not present in database
Track 16 not present in database
None of the tracks are present in the AccurateRip database
End of status report
---- CUETools DB Plugin V2.1.4
[CTDB TOCID: TgnQ26vhzAdRwZZyGtHS6vFq5gA-] disk not present in database
Submit result: TgnQ26vhzAdRwZZyGtHS6vFq5gA- has been uploaded
==== Log checksum 273B18D623BA2B2E362F7E6DFB4C8DFF91100329BC52B0D558931E4A726341DE ====
--●★●СИНГЛЫ ●★●--

2002. Ik denk altijd nog aan jou (CDS) [Grad Damen & Jan Vayne]

Год выпуска диска : 2002
Производитель диска : Нидерланды
Аудио кодек : FLAC
Тип рипа : image+.cue (Test & Copy)
Битрейт аудио : lossless
Продолжительность : 7:40
Лейбл : HJDM Music
Каталожный номер : 8713953411152
Источник (релизер): Рип оригинального диска из личной коллекции
Сканы: прилагаются


01. Ik denk altijd nog aan jou
02. Ik denk altijd nog aan jou (Piano Versie)
-

Лог создания рипа

Exact Audio Copy V1.0 beta 3 from 29. August 2011
EAC extraction logfile from 23. November 2012, 9:02
Grad Damen & Jan Vayne / Ik denk altijd nog aan jou (CDS) (8713953411152)
Used drive : TSSTcorpCDDVDW TS-L633C Adapter: 2 ID: 0
Read mode : Secure
Utilize accurate stream : Yes
Defeat audio cache : Yes
Make use of C2 pointers : No
Read offset correction : 6
Overread into Lead-In and Lead-Out : No
Fill up missing offset samples with silence : Yes
Delete leading and trailing silent blocks : No
Null samples used in CRC calculations : Yes
Used interface : Native Win32 interface for Win NT & 2000
Used output format : Internal WAV Routines
Sample format : 44.100 Hz; 16 Bit; Stereo
TOC of the extracted CD
Track | Start | Length | Start sector | End sector
---------------------------------------------------------
1 | 0:00.00 | 3:42.08 | 0 | 16657
2 | 3:42.08 | 3:57.72 | 16658 | 34504
Range status and errors
Selected range
Filename C:\Users\user\Desktop\Grad Damen & Jan Vayne - Ik denk altijd nog aan jou (CDS) (8713953411152).wav
Peak level 100.0 %
Extraction speed 1.2 X
Range quality 100.0 %
Test CRC 128B1A1F
Copy CRC 128B1A1F
Copy OK
No errors occurred
AccurateRip summary
Track 1 not present in database
Track 2 not present in database
None of the tracks are present in the AccurateRip database
End of status report

2006. Jij bent mijn leven (CDS) [Dario & Jan Vayne]

Год выпуска диска : 2006
Производитель диска : Нидерланды
Аудио кодек : FLAC
Тип рипа : image+.cue (Test & Copy)
Битрейт аудио : lossless
Продолжительность : 6:37
Лейбл : RoodHitBlauw / That's Entertainment BV
Каталожный номер : RHBCS 9905 / 8713092099051
Источник (релизер): Рип оригинального диска из личной коллекции
Сканы: прилагаются


01. Jij bent mijn leven (Dario & Jan Vayne)
02. Dit is zo'n dag (Dario)
-

Лог создания рипа

Exact Audio Copy V1.0 beta 3 from 29. August 2011
EAC extraction logfile from 22. January 2013, 21:00
Dario & Jan Vayne / Jij bent mijn leven (CDS) (8713092099051)
Used drive : TSSTcorpCDDVDW TS-L633C Adapter: 2 ID: 0
Read mode : Secure
Utilize accurate stream : Yes
Defeat audio cache : Yes
Make use of C2 pointers : No
Read offset correction : 6
Overread into Lead-In and Lead-Out : No
Fill up missing offset samples with silence : Yes
Delete leading and trailing silent blocks : No
Null samples used in CRC calculations : Yes
Used interface : Native Win32 interface for Win NT & 2000
Used output format : Internal WAV Routines
Sample format : 44.100 Hz; 16 Bit; Stereo
TOC of the extracted CD
Track | Start | Length | Start sector | End sector
---------------------------------------------------------
1 | 0:00.00 | 3:23.70 | 0 | 15294
2 | 3:23.70 | 3:14.02 | 15295 | 29846
Range status and errors
Selected range
Filename C:\Users\user\Desktop\Dario & Jan Vayne - Jij bent mijn leven (CDS) (8713092099051).wav
Peak level 100.0 %
Extraction speed 1.2 X
Range quality 100.0 %
Test CRC 9F2BD689
Copy CRC 9F2BD689
Copy OK
No errors occurred
AccurateRip summary
Track 1 not present in database
Track 2 not present in database
None of the tracks are present in the AccurateRip database
End of status report

-



Показать сообщения:    

Текущее время: 05-Дек 01:26

Часовой пояс: UTC + 3


Вы не можете начинать темы
Вы не можете отвечать на сообщения
Вы не можете редактировать свои сообщения
Вы не можете удалять свои сообщения
Вы не можете голосовать в опросах
Вы не можете прикреплять файлы к сообщениям
Вы не можете скачивать файлы