Олафур Эллиассон: игры с пространством / Olafur Eliasson: Space is process (Якоб Йоргенсен, Хенрик Лундо) [2010, документальный / 24 DOC, SATRip]


Статистика раздачи [Обновить пиров]
Размер:  524 MB   |    Зарегистрирован:  8 месяцев 18 дней   |    Скачан:  0 раз

Полного источника не было: Никогда

 
   
 
 
 

[Цитировать]

Олафур Эллиассон: игры с пространством / Olafur Eliasson: Space is process
Год выпуска: 2010
Страна: Дания, Германия, США, Великобритания, Исландия
Жанр: документальный / 24 DOC
Продолжительность: 00:50:34
Перевод: Профессиональный (одноголосый)
Русские субтитры: нет
Режиссер: Якоб Йоргенсен, Хенрик Лундо
Описание: Олафур Элиассон. Современный датско-исландский художник. Одна из самых известных его работ - инсталляция «The Weather Project» в турбинном зале Tate Modern в Лондоне в 2003. Фильм исследует ум и экстраординарные способности художника. Свет, пространство и восприятие - ключи к его работам.
Качество: SATRip
Формат: MKV
Видео кодек: H.264
Аудио кодек: AC3
Видео: MPEG4 Video (H264) 720x400 25fps
Аудио: Dolby AC3 48000Hz stereo 128 Kbps

MediaInfo

Format : Matroska
Format version : Version 2
File size : 524 MiB
Duration : 50mn 33s
Overall bit rate : 1 448 Kbps
Encoded date : UTC 2012-07-24 12:09:55
Writing application : mkvmerge v5.6.0 ('Kenya Kane') built on Jun 29 2012 15:01:44
Writing library : libebml v1.2.3 + libmatroska v1.3.0
Video
ID : 1
Format : AVC
Format/Info : Advanced Video Codec
Format profile : High@L3.0
Format settings, CABAC : Yes
Format settings, ReFrames : 5 frames
Codec ID : V_MPEG4/ISO/AVC
Duration : 50mn 33s
Bit rate : 1 318 Kbps
Width : 720 pixels
Height : 400 pixels
Display aspect ratio : 16:9
Frame rate mode : Constant
Frame rate : 25.000 fps
Color space : YUV
Chroma subsampling : 4:2:0
Bit depth : 8 bits
Scan type : Progressive
Bits/(Pixel*Frame) : 0.183
Stream size : 467 MiB (89%)
Writing library : x264 core 125 r2200 999b753
Encoding settings : cabac=1 / ref=5 / deblock=1:0:0 / analyse=0x3:0x113 / me=umh / subme=8 / psy=1 / psy_rd=1.00:0.10 / mixed_ref=1 / me_range=16 / chroma_me=1 / trellis=1 / 8x8dct=1 / cqm=0 / deadzone=21,11 / fast_pskip=1 / chroma_qp_offset=-3 / threads=12 / lookahead_threads=2 / sliced_threads=0 / nr=0 / decimate=1 / interlaced=0 / bluray_compat=0 / constrained_intra=0 / bframes=3 / b_pyramid=2 / b_adapt=1 / b_bias=0 / direct=3 / weightb=1 / open_gop=0 / weightp=2 / keyint=250 / keyint_min=25 / scenecut=40 / intra_refresh=0 / rc_lookahead=50 / rc=2pass / mbtree=1 / bitrate=1318 / ratetol=1.0 / qcomp=0.60 / qpmin=0 / qpmax=69 / qpstep=4 / cplxblur=20.0 / qblur=0.5 / ip_ratio=1.40 / aq=1:1.00
Default : Yes
Forced : No
Audio
ID : 2
Format : AC-3
Format/Info : Audio Coding 3
Mode extension : CM (complete main)
Format settings, Endianness : Big
Codec ID : A_AC3
Duration : 50mn 33s
Bit rate mode : Constant
Bit rate : 128 Kbps
Channel(s) : 2 channels
Channel positions : Front: L R
Sampling rate : 48.0 KHz
Bit depth : 16 bits
Compression mode : Lossy
Stream size : 46.3 MiB (9%)
Default : Yes
Forced : No

Скриншоты

[teatrix.ru].t16576.torrent 
Торрент: Зарегистрирован [ 2016-03-16 12:35 ] · C741CE3652CB0728B39CC02ECABEBDEEBB64C788

Скачать .torrent

Скачать

11 KB

Статус: проверено
Скачан: 0 раз
Размер: 524 MB
terms.php



Быстрый ответ

Имя:

      
Для отправки сообщений необходимо включить JavaScript
Показать сообщения:    

Текущее время: 04-Дек 11:16

Часовой пояс: UTC + 3


Вы можете начинать темы
Вы можете отвечать на сообщения
Вы не можете редактировать свои сообщения
Вы не можете удалять свои сообщения
Вы не можете голосовать в опросах
Вы не можете прикреплять файлы к сообщениям
Вы можете скачивать файлы