Мы родом из мультиков (Татьяна Архипцова) [2012, Документальный, DVB]


Статистика раздачи [Обновить пиров]
Размер:  1.77 GB   |    Зарегистрирован:  8 месяцев 23 дня   |    Скачан:  0 раз

Полного источника не было: Никогда

Личеров:  69  [  0 KB/s  ]   Подробная статистика пиров
 
   
 
 
 

[Цитировать]

Мы родом из мультиков
Год выпуска: 2012
Страна: Россия
Жанр: Документальный
Продолжительность: 00:47:58
Перевод: Не требуется
Русские субтитры: нет
Режиссер: Татьяна Архипцова
Описание: Ежик в тумане, Винни-Пух, Чебурашка, Снежная королева, Пластилиновая ворона – эти и многие другие персонажи стали культовыми героями российской мультипликации. Кто их придумал и почему они так полюбились зрителям самых разных поколений? На эти вопросы отвечают в документальном фильме "Мы родом из мультфильмов" Леонид Шварцман, Юрий Норштейн, Эдуард Назаров, Игорь Ковалев и другие мастера. Они поделятся секретами производства рисованных, кукольных, пластилиновых и компьютерных мультфильмов, а также расскажут о первом российском аниматоре Владиславе Старевиче, чей фильм "Прекрасная Люканида" был впервые представлен публике ровно 100 лет назад.
Автор сценария: Сергей Капков
Доп. информация: Релиз -

Рип чистый. Без посторонних надписей. Выкладывается как есть.
Качество: DVB
Формат: MPG
Видео кодек: MPG2
Аудио кодек: MP2
Видео: 720x576 @ 768x576 (4:3) 25.00fps 5 017 Kbps, 0.484 bit/pixel
Аудио: MPEG Audio 48000Hz stereo 192 Кбит/сек

Скриншоты


Скринлист

Постер HQ

MI

General
Complete name : Мы родом из мультиков (2012, Россия, Документальный) (MYDIMKA).mpg
Format : MPEG-PS
File size : 1.77 GiB
Duration : 47mn 58s
Overall bit rate mode : Variable
Overall bit rate : 5 287 Kbps
Video
ID : 224 (0xE0)
Format : MPEG Video
Format version : Version 2
Format profile : Main@Main
Format settings, BVOP : Yes
Format settings, Matrix : Custom
Duration : 47mn 58s
Bit rate mode : Variable
Bit rate : 5 017 Kbps
Width : 720 pixels
Height : 576 pixels
Display aspect ratio : 4:3
Frame rate : 25.000 fps
Standard : PAL
Color space : YUV
Chroma subsampling : 4:2:0
Bit depth : 8 bits
Scan type : Interlaced
Scan order : Top Field First
Compression mode : Lossy
Bits/(Pixel*Frame) : 0.484
Stream size : 1.67 GiB (94%)
Audio
ID : 192 (0xC0)
Format : MPEG Audio
Format version : Version 1
Format profile : Layer 2
Duration : 47mn 58s
Bit rate mode : Constant
Bit rate : 192 Kbps
Channel(s) : 2 channels
Sampling rate : 48.0 KHz
Compression mode : Lossy
Delay relative to video : -24ms
Stream size : 65.9 MiB (4%)
[teatrix.ru].t16594.torrent 
Торрент: Зарегистрирован [ 2016-03-16 12:30 ] · 6499D0F506FC767C74FA8EDB025BC31C6C88A9E8

Скачать .torrent

Скачать

18 KB

Статус: проверено
Скачан: 0 раз
Размер: 1.77 GB
terms.php



Показать сообщения:    

Текущее время: 09-Дек 06:56

Часовой пояс: UTC + 3


Вы не можете начинать темы
Вы не можете отвечать на сообщения
Вы не можете редактировать свои сообщения
Вы не можете удалять свои сообщения
Вы не можете голосовать в опросах
Вы не можете прикреплять файлы к сообщениям
Вы можете скачивать файлы