Феникс. Большой театр Венеции / La Fenice. Le Grand Theatre de Venise [2002, документальный / 356 дней ТВ, SATRip-AVC]


Статистика раздачи [Обновить пиров]
Размер:  408 MB   |    Зарегистрирован:  8 месяцев 20 дней   |    Скачан:  0 раз

Полного источника не было: Никогда

 
   
 
 
 

[Цитировать]

Феникс. Большой театр Венеции / La Fenice. Le Grand Theatre de Venise
Год выпуска: 2002
Страна: Франция
Жанр: документальный / 356 дней ТВ
Продолжительность: 00:39:52
Перевод: Профессиональный (одноголосый)
Русские субтитры: нет
Описание: Фильм о театре "Ла Фениче" ("Феникс") – главном оперном театре Венеции, который находится в квартале Сан-Марко, на площади campo San Fantin.
Качество: SATRip
Формат: MKV
Видео кодек: H.264
Аудио кодек: AC3
Видео: MPEG4 Video (H264) 704x520 25fps 1 300 Kbps
Аудио: Dolby AC3 48000Hz stereo 128 Kbps

MediaInfo

Format : Matroska
Format version : Version 2
File size : 408 MiB
Duration : 39mn 52s
Overall bit rate : 1 430 Kbps
Encoded date : UTC 2012-10-23 14:29:22
Writing application : mkvmerge v5.8.0 ('No Sleep / Pillow') built on Sep 2 2012 15:37:04
Writing library : libebml v1.2.3 + libmatroska v1.3.0
Video
ID : 1
Format : AVC
Format/Info : Advanced Video Codec
Format profile : High@L4.1
Format settings, CABAC : Yes
Format settings, ReFrames : 8 frames
Codec ID : V_MPEG4/ISO/AVC
Duration : 39mn 52s
Bit rate : 1 300 Kbps
Width : 704 pixels
Height : 520 pixels
Display aspect ratio : 4:3
Frame rate mode : Constant
Frame rate : 25.000 fps
Color space : YUV
Chroma subsampling : 4:2:0
Bit depth : 8 bits
Scan type : Progressive
Bits/(Pixel*Frame) : 0.142
Stream size : 363 MiB (89%)
Writing library : x264 core 125 r2208 d9d2288
Encoding settings : cabac=1 / ref=8 / deblock=1:0:0 / analyse=0x3:0x133 / me=umh / subme=9 / psy=1 / psy_rd=1.00:0.10 / mixed_ref=1 / me_range=16 / chroma_me=1 / trellis=2 / 8x8dct=1 / cqm=0 / deadzone=21,11 / fast_pskip=1 / chroma_qp_offset=-3 / threads=12 / lookahead_threads=2 / sliced_threads=0 / nr=0 / decimate=1 / interlaced=0 / bluray_compat=0 / constrained_intra=0 / bframes=3 / b_pyramid=2 / b_adapt=2 / b_bias=0 / direct=3 / weightb=1 / open_gop=0 / weightp=2 / keyint=250 / keyint_min=25 / scenecut=40 / intra_refresh=0 / rc_lookahead=60 / rc=2pass / mbtree=1 / bitrate=1300 / ratetol=1.0 / qcomp=0.60 / qpmin=0 / qpmax=69 / qpstep=4 / cplxblur=20.0 / qblur=0.5 / ip_ratio=1.40 / aq=1:1.00
Default : Yes
Forced : No
Audio
ID : 2
Format : AC-3
Format/Info : Audio Coding 3
Mode extension : CM (complete main)
Format settings, Endianness : Big
Codec ID : A_AC3
Duration : 39mn 52s
Bit rate mode : Constant
Bit rate : 128 Kbps
Channel(s) : 2 channels
Channel positions : Front: L R
Sampling rate : 48.0 KHz
Bit depth : 16 bits
Compression mode : Lossy
Stream size : 36.5 MiB (9%)
Default : Yes
Forced : No

Скриншоты и скринлист

[teatrix.ru].t16595.torrent 
Торрент: Зарегистрирован [ 2016-03-16 12:35 ] · 5DD92095A2D0AC804505C9F4DC823E16E283A487

Скачать .torrent

Скачать

16 KB

Статус: проверено
Скачан: 0 раз
Размер: 408 MB
terms.php



Быстрый ответ

Имя:

      
Для отправки сообщений необходимо включить JavaScript
Показать сообщения:    

Текущее время: 05-Дек 15:33

Часовой пояс: UTC + 3


Вы можете начинать темы
Вы можете отвечать на сообщения
Вы не можете редактировать свои сообщения
Вы не можете удалять свои сообщения
Вы не можете голосовать в опросах
Вы не можете прикреплять файлы к сообщениям
Вы можете скачивать файлы