(Easy Listening, Light Classics, Orchestral) Franck Pourcel - Коллекция (8CD) [только классические альбомы] - 1988-1992, FLAC (image+.cue), lossless


 

[Цитировать]

-●★●Franck Pourcel FLAC Коллекция ●★●- -Жанр: Easy Listening, Light Classics, Orchestral | Производитель диска: EU | Лейбл: EMI
Годы издания: 1988-1992 | Аудио кодек: FLAC | Тип рипа: image+.cue | Битрейт аудио: lossless
Источник (релизер): Рипы оригинальных дисков из личной коллекции | Наличие сканов: 600dpi, PNG
--

1988. Classics

-Franck Pourcel - Classics- Год выпуска диска : 1988
Производитель диска : UK
Аудио кодек : FLAC
Тип рипа : image+.cue (Test & Copy)
Битрейт аудио : lossless
Продолжительность : 62:40
Лейбл : EMI
Каталожный номер : CDP 7 46933 2
Источник (релизер): Рип оригинального диска из личной коллекции
Сканы: прилагаются


01. Thus spake Zarathustra (Introduction) (Strauss)
02. Carmen (Overture) (Bizet)
03. Intermezzo from Cavalleria Rusticana (Mascagni)
04. Norwegian Dance No. 2 (Grieg)
05. Sicilian Vespers (Overture, Allegro) (Verdi)
06. Tango (Albeniz)
07. Ritual Fire Dance (De Falla)
08. Sicilienne (Bach)
09. Sabre Dance (Khatchaturian)
10. Largo (Händel)
11. Czardas (Monti)
12. Gymnopédie No. 3 (Satie)
13. La danza (Rossini)
14. Le Lac de Côme (Galas)
15. Can can (Extract from La vie Parisienne) (Offenbach)
16. Rêve d'amour (Liszt)
17. Valse, Op. 39 (Brahms)-Компиляция из двух альбомов Франка Пурселя - "Classics in Digital" (1979) и "Classics in Digital 2" (1981).
London Symphony Orchestra, оркестр (1,9-11,13-17)
National Philharmonic Orchestra, оркестр (2-8,10,12)
Franck Pourcel, дирижер; аранжировщик

-

Лог создания рипа

Exact Audio Copy V1.0 beta 3 from 29. August 2011
EAC extraction logfile from 9. October 2012, 13:58
Franck Pourcel / Classics (CDP 7 46933 2)
Used drive : TSSTcorpCDDVDW TS-L633C Adapter: 2 ID: 0
Read mode : Secure
Utilize accurate stream : Yes
Defeat audio cache : Yes
Make use of C2 pointers : No
Read offset correction : 6
Overread into Lead-In and Lead-Out : No
Fill up missing offset samples with silence : Yes
Delete leading and trailing silent blocks : No
Null samples used in CRC calculations : Yes
Used interface : Native Win32 interface for Win NT & 2000
Used output format : Internal WAV Routines
Sample format : 44.100 Hz; 16 Bit; Stereo
TOC of the extracted CD
Track | Start | Length | Start sector | End sector
---------------------------------------------------------
1 | 0:00.32 | 2:00.08 | 32 | 9039
2 | 2:00.40 | 4:02.10 | 9040 | 27199
3 | 6:02.50 | 4:14.47 | 27200 | 46296
4 | 10:17.22 | 2:16.55 | 46297 | 56551
5 | 12:34.02 | 6:22.28 | 56552 | 85229
6 | 18:56.30 | 4:04.05 | 85230 | 103534
7 | 23:00.35 | 4:04.45 | 103535 | 121879
8 | 27:05.05 | 3:54.05 | 121880 | 139434
9 | 30:59.10 | 2:21.12 | 139435 | 150021
10 | 33:20.22 | 3:25.25 | 150022 | 165421
11 | 36:45.47 | 5:00.30 | 165422 | 187951
12 | 41:46.02 | 3:32.10 | 187952 | 203861
13 | 45:18.12 | 2:14.73 | 203862 | 213984
14 | 47:33.10 | 3:19.07 | 213985 | 228916
15 | 50:52.17 | 3:16.68 | 228917 | 243684
16 | 54:09.10 | 6:07.12 | 243685 | 271221
17 | 60:16.22 | 2:24.40 | 271222 | 282061
Range status and errors
Selected range
Filename C:\Users\user\Desktop\Franck Pourcel - Classics (CDP 7 46933 2).wav
Peak level 97.9 %
Extraction speed 4.1 X
Range quality 100.0 %
Test CRC CD524E3F
Copy CRC CD524E3F
Copy OK
No errors occurred
AccurateRip summary
Track 1 accurately ripped (confidence 2) [D9ADD119] (AR v1)
Track 2 accurately ripped (confidence 2) [B9D4525D] (AR v1)
Track 3 not present in database
Track 4 not present in database
Track 5 not present in database
Track 6 not present in database
Track 7 not present in database
Track 8 not present in database
Track 9 accurately ripped (confidence 2) [C2E62F9E] (AR v1)
Track 10 not present in database
Track 11 not present in database
Track 12 not present in database
Track 13 accurately ripped (confidence 2) [4302B01A] (AR v1)
Track 14 accurately ripped (confidence 2) [6A0A5A90] (AR v1)
Track 15 accurately ripped (confidence 2) [7A30EBE2] (AR v1)
Track 16 not present in database
Track 17 not present in database
6 track(s) accurately ripped
11 track(s) not present in the AccurateRip database
Some tracks could not be verified as accurate
End of status report

1992. Pages celebres 2

- Год выпуска диска : 1992
Производитель диска : EU
Аудио кодек : FLAC
Тип рипа : image+.cue (Test & Copy)
Битрейт аудио : lossless
Продолжительность : 63:03
Лейбл : EMI
Каталожный номер : CDZ 7 67679 2
Источник (релизер): Рип оригинального диска из личной коллекции
Сканы: прилагаются

01. Danse espagnole (Falla)
02. Clair de Lune (Massenet)
03. Mouvement perpétuel (Paganini)
04. Valse triste, Op. 44 (Sibelius)
05. Ave Maria (Schubert)
06. Rapsodie hongroise No. 2 (Liszt)
07. Intermezzo de Goyescas (Granados)
08. L'Arlesienne (Farandole) (Bizet)
09. Marche turque (Mozart)
10. Celebre nocturne (Chopin)
11. Valse Minute (Valse du petit chien) (Chopin)
12. La belle au bois dormant (Valse) (Tchaikovsky)
13. L'amour sorcier (Danse rituelle du feu) (Falla)
14. L'amour des trois oranges (Marche) (Prokofiev)
15. Clair de Lune (Debussy)
-

Лог создания рипа

Exact Audio Copy V1.0 beta 3 from 29. August 2011
EAC extraction logfile from 3. September 2013, 15:20
Franck Pourcel / Pages celebres 2
Used drive : TSSTcorpCDDVDW TS-L633C Adapter: 2 ID: 0
Read mode : Secure
Utilize accurate stream : Yes
Defeat audio cache : Yes
Make use of C2 pointers : No
Read offset correction : 6
Overread into Lead-In and Lead-Out : No
Fill up missing offset samples with silence : Yes
Delete leading and trailing silent blocks : No
Null samples used in CRC calculations : Yes
Used interface : Native Win32 interface for Win NT & 2000
Used output format : Internal WAV Routines
Sample format : 44.100 Hz; 16 Bit; Stereo
TOC of the extracted CD
Track | Start | Length | Start sector | End sector
---------------------------------------------------------
1 | 0:00.32 | 3:21.68 | 32 | 15174
2 | 3:22.25 | 3:50.25 | 15175 | 32449
3 | 7:12.50 | 2:15.62 | 32450 | 42636
4 | 9:28.37 | 5:15.50 | 42637 | 66311
5 | 14:44.12 | 4:50.50 | 66312 | 88111
6 | 19:34.62 | 11:24.13 | 88112 | 139424
7 | 30:59.00 | 4:27.00 | 139425 | 159449
8 | 35:26.00 | 3:23.50 | 159450 | 174724
9 | 38:49.50 | 2:53.25 | 174725 | 187724
10 | 41:43.00 | 5:13.37 | 187725 | 211236
11 | 46:56.37 | 1:57.55 | 211237 | 220066
12 | 48:54.17 | 4:24.20 | 220067 | 239886
13 | 53:18.37 | 3:59.38 | 239887 | 257849
14 | 57:18.00 | 1:37.12 | 257850 | 265136
15 | 58:55.12 | 4:15.55 | 265137 | 284316
Range status and errors
Selected range
Filename D:\Franck Pourcel - Collection (FLAC) [by italia57]\1992 - Pages Celebres 2 [CDZ 7 66779 2]\Franck Pourcel - Pages celebres 2 (CDZ 7 67679 2).wav
Peak level 100.0 %
Extraction speed 3.7 X
Range quality 100.0 %
Test CRC 11494C5D
Copy CRC 11494C5D
Copy OK
No errors occurred
AccurateRip summary
Track 1 not present in database
Track 2 not present in database
Track 3 not present in database
Track 4 not present in database
Track 5 not present in database
Track 6 not present in database
Track 7 not present in database
Track 8 not present in database
Track 9 not present in database
Track 10 not present in database
Track 11 not present in database
Track 12 not present in database
Track 13 not present in database
Track 14 not present in database
Track 15 not present in database
None of the tracks are present in the AccurateRip database
End of status report
---- CUETools DB Plugin V2.1.4
[CTDB TOCID: 9sU9dsjh1437XtykR9EDm8lxYds-] found
Submit result: 9sU9dsjh1437XtykR9EDm8lxYds- has been uploaded
Track | CTDB Status
1 | (1/1) Accurately ripped
2 | (1/1) Accurately ripped
3 | (1/1) Accurately ripped
4 | (1/1) Accurately ripped
5 | (1/1) Accurately ripped
6 | (1/1) Accurately ripped
7 | (1/1) Accurately ripped
8 | (1/1) Accurately ripped
9 | (1/1) Accurately ripped
10 | (1/1) Accurately ripped
11 | (1/1) Accurately ripped
12 | (1/1) Accurately ripped
13 | (1/1) Accurately ripped
14 | (1/1) Accurately ripped
15 | (1/1) Differs in 37 samples @04:07:41
If you are sure that your rip contains errors, you can use CUETools to repair it.
==== Log checksum 0DDE4EEF59F9BBDAD6346ED6A31EDCF5DEF8C8156E5F782925F0111F605ED7DE ====

1992. Pages celebres 3

- Год выпуска диска : 1992
Производитель диска : EU
Аудио кодек : FLAC
Тип рипа : image+.cue (Test & Copy)
Битрейт аудио : lossless
Продолжительность : 49:52
Лейбл : EMI
Каталожный номер : CDZ 7 67680 2
Источник (релизер): Рип оригинального диска из личной коллекции
Сканы: прилагаются


01. Danse Slave No. 1 en UT majeur (Dvorak)
02. La Traviata: Acte IV, No. 15 - Scene (Verdi)
03. Marche militaire (Schubert)
04. Menuet (Boccherini)
05. Sylvia - Pizzicati (Delibes)
06. Reve d'amour (Liszt)
07. Les filles de Cadix (Delibes)
08. Plaisir d'amour (Martini)
09. Carmen (Entr'acte) (Acte IV) (Bizet)
10. Seul qui connait la tristesse (Tchaikovsky)
11. Danse du Sabre (Khachaturian)
12. Le vol du bourdon (Rimski-Korsakov)
13. Procession des Sardars (Ippolotov-Ivanov)
14. Golliwogg's Cake-Walk (Debussy)
15. Menuet (Mozart)
-

Лог создания рипа

Exact Audio Copy V1.0 beta 3 from 29. August 2011
EAC extraction logfile from 3. September 2013, 10:58
Franck Pourcel / Pages celebres 3
Used drive : TSSTcorpCDDVDW SN-S082N Adapter: 3 ID: 0
Read mode : Secure
Utilize accurate stream : Yes
Defeat audio cache : Yes
Make use of C2 pointers : No
Read offset correction : 6
Overread into Lead-In and Lead-Out : No
Fill up missing offset samples with silence : Yes
Delete leading and trailing silent blocks : No
Null samples used in CRC calculations : Yes
Used interface : Native Win32 interface for Win NT & 2000
Used output format : Internal WAV Routines
Sample format : 44.100 Hz; 16 Bit; Stereo
TOC of the extracted CD
Track | Start | Length | Start sector | End sector
---------------------------------------------------------
1 | 0:00.32 | 4:15.68 | 32 | 19224
2 | 4:16.25 | 4:48.25 | 19225 | 40849
3 | 9:04.50 | 3:10.00 | 40850 | 55099
4 | 12:14.50 | 2:52.50 | 55100 | 68049
5 | 15:07.25 | 1:39.15 | 68050 | 75489
6 | 16:46.40 | 5:21.72 | 75490 | 99636
7 | 22:08.37 | 2:20.13 | 99637 | 110149
8 | 24:28.50 | 4:19.07 | 110150 | 129581
9 | 28:47.57 | 2:23.25 | 129582 | 140331
10 | 31:11.07 | 3:54.30 | 140332 | 157911
11 | 35:05.37 | 2:21.48 | 157912 | 168534
12 | 37:27.10 | 1:23.15 | 168535 | 174774
13 | 38:50.25 | 3:49.22 | 174775 | 191971
14 | 42:39.47 | 3:08.28 | 191972 | 206099
15 | 45:48.00 | 4:10.65 | 206100 | 224914
Range status and errors
Selected range
Filename D:\Franck Pourcel - Collection (FLAC) [by italia57]\1992 - Pages Celebres 3 [CDZ 7 67680 2]\Franck Pourcel - Pages celebres 3 (CDZ 7 67680 2).wav
Peak level 100.0 %
Extraction speed 4.0 X
Range quality 100.0 %
Test CRC 106DB6C8
Copy CRC 106DB6C8
Copy OK
No errors occurred
AccurateRip summary
Track 1 not present in database
Track 2 not present in database
Track 3 not present in database
Track 4 not present in database
Track 5 not present in database
Track 6 not present in database
Track 7 not present in database
Track 8 not present in database
Track 9 not present in database
Track 10 not present in database
Track 11 not present in database
Track 12 not present in database
Track 13 not present in database
Track 14 not present in database
Track 15 not present in database
None of the tracks are present in the AccurateRip database
End of status report
---- CUETools DB Plugin V2.1.4
[CTDB TOCID: fpchus8L0.BPtfNgNtfGYkYpSG4-] disk not present in database
Submit result: fpchus8L0.BPtfNgNtfGYkYpSG4- has been uploaded
==== Log checksum 254E668D108D2C3D4CF2FE9361F6E48C12B1787BF3876AE4F400327F4A498516 ====

1992. Pages celebres 4

- Год выпуска диска : 1992
Производитель диска : EU
Аудио кодек : FLAC
Тип рипа : image+.cue (Test & Copy)
Битрейт аудио : lossless
Продолжительность : 63:49
Лейбл : EMI
Каталожный номер : CDZ 7 67681 2
Источник (релизер): Рип оригинального диска из личной коллекции
Сканы: прилагаются


01. Danse des jeunes kurdes [extrait du ballet 'Gayaneh'] (Khachaturian)
02. Aragonaise [ballet extrait de l'opéra 'Le Cid'] (Massenet)
03. Danse Hongroise No. 5 [extrait de la Serenade pour Orchestre a Cordes] (Brahms)
04. Valse No. 2 (Tchaikovsky)
05. Pizzicato-Polka (Strauss)
06. Badinerie en mi majeur (Corelli)
07. Finale [Allegro en Canon de la Sonate en la majeur, Op. 2, No. 3] (Albinoni)
08. Aria [extrait de la Suite en re majeur, BWV. 1068] (Bach)
09. Finale [(Allegro) du Concerto en la majeur] (Vivaldi)
10. Largo [extrait de l'opéra 'Xerxes'] (Haendel)
11. Badinerie [extrait de la Suite en si mineur, BWV. 1067] (Bach)
12. Allegro [du Concerto in re mineur] (Vivaldi)
13. Trumpet Voluntary (Clarke)
14. La chasse [Sonate in re majeur] (Scarlatti)
15. Sarabande [extrait de la Sonate en mi mineur, Op. 5, No. 8] (Corelli)
16. Ouverture ['Didon et Enee'] (Purcell)
17. Menuet [extrait de l'opéra 'Les fetes d'Hebe'] (Mozart)
18. Tambourin [extrait de l'opéra 'Les fetes d'Hebe'] (Rameau)
19. Danse macabre, Op. 40 (Saint-Saens)
20. Chant hindou ['Sadko'] (Rimski-Korsakov)
21. Galop ['La Gioconda'] (Ponchielli)
22. Thème de la Symphonie pathétique (Tchaikovsky)
23. Ave Maria (Bach/Gounod)
-

Лог создания рипа

Exact Audio Copy V1.0 beta 3 from 29. August 2011
EAC extraction logfile from 3. September 2013, 12:10
Franck Pourcel / Pages celebres 4
Used drive : TSSTcorpCDDVDW TS-L633C Adapter: 2 ID: 0
Read mode : Secure
Utilize accurate stream : Yes
Defeat audio cache : Yes
Make use of C2 pointers : No
Read offset correction : 6
Overread into Lead-In and Lead-Out : No
Fill up missing offset samples with silence : Yes
Delete leading and trailing silent blocks : No
Null samples used in CRC calculations : Yes
Used interface : Native Win32 interface for Win NT & 2000
Used output format : Internal WAV Routines
Sample format : 44.100 Hz; 16 Bit; Stereo
TOC of the extracted CD
Track | Start | Length | Start sector | End sector
---------------------------------------------------------
1 | 0:00.32 | 3:09.18 | 32 | 14224
2 | 3:09.50 | 1:51.50 | 14225 | 22599
3 | 5:01.25 | 3:00.50 | 22600 | 36149
4 | 8:02.00 | 3:53.55 | 36150 | 53679
5 | 11:55.55 | 2:38.10 | 53680 | 65539
6 | 14:33.65 | 1:02.35 | 65540 | 70224
7 | 15:36.25 | 2:41.00 | 70225 | 82299
8 | 18:17.25 | 4:47.12 | 82300 | 103836
9 | 23:04.37 | 2:07.53 | 103837 | 113414
10 | 25:12.15 | 2:30.10 | 113415 | 124674
11 | 27:42.25 | 1:28.50 | 124675 | 131324
12 | 29:11.00 | 1:24.00 | 131325 | 137624
13 | 30:35.00 | 2:21.62 | 137625 | 148261
14 | 32:56.62 | 2:54.25 | 148262 | 161336
15 | 35:51.12 | 3:09.63 | 161337 | 175574
16 | 39:01.00 | 1:57.25 | 175575 | 184374
17 | 40:58.25 | 1:50.37 | 184375 | 192661
18 | 42:48.62 | 1:11.38 | 192662 | 198024
19 | 44:00.25 | 7:53.12 | 198025 | 233511
20 | 51:53.37 | 3:30.00 | 233512 | 249261
21 | 55:23.37 | 1:55.65 | 249262 | 257951
22 | 57:19.27 | 2:59.35 | 257952 | 271411
23 | 60:18.62 | 3:40.45 | 271412 | 287956
Range status and errors
Selected range
Filename D:\Franck Pourcel - Collection (FLAC) [by italia57]\1992 - Pages Celebres 4 [CDZ 7 67681 2]\Franck Pourcel - Pages celebres 4 (CDZ 7 67681 2).wav
Peak level 100.0 %
Extraction speed 1.9 X
Range quality 100.0 %
Test CRC 14B5B323
Copy CRC 14B5B323
Copy OK
No errors occurred
AccurateRip summary
Track 1 not present in database
Track 2 not present in database
Track 3 not present in database
Track 4 not present in database
Track 5 not present in database
Track 6 not present in database
Track 7 not present in database
Track 8 not present in database
Track 9 not present in database
Track 10 not present in database
Track 11 not present in database
Track 12 not present in database
Track 13 not present in database
Track 14 not present in database
Track 15 not present in database
Track 16 not present in database
Track 17 not present in database
Track 18 not present in database
Track 19 not present in database
Track 20 not present in database
Track 21 not present in database
Track 22 not present in database
Track 23 not present in database
None of the tracks are present in the AccurateRip database
End of status report
---- CUETools DB Plugin V2.1.4
[CTDB TOCID: NSEvieEiyb5P.F3HEHUu7CxT71E-] disk not present in database
Submit result: NSEvieEiyb5P.F3HEHUu7CxT71E- has been uploaded
==== Log checksum E6B4995FB578042681B25035246DAAA67AF0B128B9DC5E6818138987BFC4A747 ====

1992. Pages celebres 5

- Год выпуска диска : 1992
Производитель диска : EU
Аудио кодек : FLAC
Тип рипа : image+.cue (Test & Copy)
Битрейт аудио : lossless
Продолжительность : 49:32
Лейбл : EMI
Каталожный номер : CDZ 7 67682 2
Источник (релизер): Рип оригинального диска из личной коллекции
Сканы: прилагаются


01. Danse Hongroise No. 1 (Brahms)
02. Adagio pour cordes et orgue (Albinoni)
03. Danse d'Anitra [Peer Gynt] (Grieg)
04. Danse des heures [La Gioconda] (Ponchielli)
05. Chanson de Solveig [Peer Gynt] (Grieg)
06. Feuilles du Matin (Strauss)
07. Bonbons de Vienne (Strauss)
08. Rosas del Sur (Strauss)
09. Les mille et une nuits (Strauss)
10. Acceleration (Strauss)
11. La vie de Parisienne (Offenbach)
12. Orphée aux enfers (Offenbach)
13. La belle Hélène (Offenbach)
14. Les contes d'Hoffmann (Offenbach)
-

Лог создания рипа

Exact Audio Copy V1.0 beta 3 from 29. August 2011
EAC extraction logfile from 3. September 2013, 11:38
Franck Pourcel / Pages celebres 5
Used drive : TSSTcorpCDDVDW SN-S082N Adapter: 3 ID: 0
Read mode : Secure
Utilize accurate stream : Yes
Defeat audio cache : Yes
Make use of C2 pointers : No
Read offset correction : 6
Overread into Lead-In and Lead-Out : No
Fill up missing offset samples with silence : Yes
Delete leading and trailing silent blocks : No
Null samples used in CRC calculations : Yes
Used interface : Native Win32 interface for Win NT & 2000
Used output format : Internal WAV Routines
Sample format : 44.100 Hz; 16 Bit; Stereo
TOC of the extracted CD
Track | Start | Length | Start sector | End sector
---------------------------------------------------------
1 | 0:00.32 | 3:36.18 | 32 | 16249
2 | 3:36.50 | 3:40.12 | 16250 | 32761
3 | 7:16.62 | 4:12.50 | 32762 | 51711
4 | 11:29.37 | 3:34.23 | 51712 | 67784
5 | 15:03.60 | 5:21.27 | 67785 | 91886
6 | 20:25.12 | 2:57.38 | 91887 | 105199
7 | 23:22.50 | 3:05.00 | 105200 | 119074
8 | 26:27.50 | 2:50.12 | 119075 | 131836
9 | 29:17.62 | 3:15.13 | 131837 | 146474
10 | 32:33.00 | 3:20.00 | 146475 | 161474
11 | 35:53.00 | 3:15.37 | 161475 | 176136
12 | 39:08.37 | 2:52.38 | 176137 | 189074
13 | 42:01.00 | 2:43.37 | 189075 | 201336
14 | 44:44.37 | 4:52.25 | 201337 | 223261
Range status and errors
Selected range
Filename D:\Franck Pourcel - Collection (FLAC) [by italia57]\1992 - Pages Celebres 5 [CDZ 7 67682 2]\Franck Pourcel - Pages celebres 5 (CDZ 7 67682 2).wav
Peak level 100.0 %
Extraction speed 3.9 X
Range quality 100.0 %
Test CRC 8659A4BA
Copy CRC 8659A4BA
Copy OK
No errors occurred
AccurateRip summary
Track 1 cannot be verified as accurate (confidence 1) [0061165B], AccurateRip returned [147FB244] (AR v2)
Track 2 cannot be verified as accurate (confidence 1) [1D47BA8D], AccurateRip returned [ED866E38] (AR v2)
Track 3 cannot be verified as accurate (confidence 1) [B03353E0], AccurateRip returned [F1ED27D6] (AR v2)
Track 4 cannot be verified as accurate (confidence 1) [06483166], AccurateRip returned [623FD339] (AR v2)
Track 5 cannot be verified as accurate (confidence 1) [6E79FF88], AccurateRip returned [051B63C3] (AR v2)
Track 6 cannot be verified as accurate (confidence 1) [A8F20F94], AccurateRip returned [BE8017EE] (AR v2)
Track 7 cannot be verified as accurate (confidence 1) [999783D8], AccurateRip returned [5C713F2B] (AR v2)
Track 8 cannot be verified as accurate (confidence 1) [4F3DC3A7], AccurateRip returned [88DB9EE9] (AR v2)
Track 9 cannot be verified as accurate (confidence 1) [8735C98E], AccurateRip returned [AB11F9EA] (AR v2)
Track 10 cannot be verified as accurate (confidence 1) [65F530CF], AccurateRip returned [23D358DE] (AR v2)
Track 11 cannot be verified as accurate (confidence 1) [A326A757], AccurateRip returned [5C860CB2] (AR v2)
Track 12 cannot be verified as accurate (confidence 1) [2ABFE8E0], AccurateRip returned [935B7CBD] (AR v2)
Track 13 cannot be verified as accurate (confidence 1) [E589B76F], AccurateRip returned [C5800375] (AR v2)
Track 14 cannot be verified as accurate (confidence 1) [3F2B5E4F], AccurateRip returned [F8CA12AD] (AR v2)
No tracks could be verified as accurate
You may have a different pressing from the one(s) in the database
End of status report
---- CUETools DB Plugin V2.1.4
[CTDB TOCID: TiRQr4OJN.mGPc_p.Uwryw0.SQc-] disk not present in database
Submit result: TiRQr4OJN.mGPc_p.Uwryw0.SQc- has been uploaded
==== Log checksum 5B98BB5A2562C5259900F750918CAC1FD28BA0AD02BB983FB358C393F1E5A046 ====

1992. Pages celebres 6

- Год выпуска диска : 1992
Производитель диска : EU
Аудио кодек : FLAC
Тип рипа : image+.cue (Test & Copy)
Битрейт аудио : lossless
Продолжительность : 56:61
Лейбл : EMI
Каталожный номер : CDZ 7 67683 2
Источник (релизер): Рип оригинального диска из личной коллекции
Сканы: прилагаются


1. Concerto No. 1 [Theme du 1er Mouvement] (3:56)
2. Tritsch Tratsch Polka (2:48)
3. Danses polovtsiennes du 'Prince Igor' (5:09)
4. Plaine, ma plaine (3:43)
5. Tristesse [Etude No. 3] (4:49)
6. Marche de Radetzky (2:44)
7. Prelude en ut Diese Mineur (6:09)
8. Danse hongroise No. 6 (4:06)
9. Le lac des cygnes: Theme (2:37)
10. Les Bateliers de la Volga (3:15)
11. La Moldau (2:06)
12. Danse des Comediens (4:20)
13. Danse des Mirlitons (2:11)
14. Danse des Clowns (1:42)
15. La danza (2:05)
16. Danse des Sylphes (2:19)
17. Danse de la fee Dragee (1:41)
18. Danse Chinoise (1:11)
-

Лог создания рипа

Exact Audio Copy V1.0 beta 3 from 29. August 2011
EAC extraction logfile from 3. September 2013, 12:14
Franck Pourcel / Pages celebres 6
Used drive : TSSTcorpCDDVDW SN-S082N Adapter: 3 ID: 0
Read mode : Secure
Utilize accurate stream : Yes
Defeat audio cache : Yes
Make use of C2 pointers : No
Read offset correction : 6
Overread into Lead-In and Lead-Out : No
Fill up missing offset samples with silence : Yes
Delete leading and trailing silent blocks : No
Null samples used in CRC calculations : Yes
Used interface : Native Win32 interface for Win NT & 2000
Used output format : Internal WAV Routines
Sample format : 44.100 Hz; 16 Bit; Stereo
TOC of the extracted CD
Track | Start | Length | Start sector | End sector
---------------------------------------------------------
1 | 0:00.32 | 3:56.05 | 32 | 17736
2 | 3:56.37 | 2:48.50 | 17737 | 30386
3 | 6:45.12 | 5:09.50 | 30387 | 53611
4 | 11:54.62 | 3:43.13 | 53612 | 70349
5 | 15:38.00 | 4:49.62 | 70350 | 92086
6 | 20:27.62 | 2:44.00 | 92087 | 104386
7 | 23:11.62 | 6:09.63 | 104387 | 132124
8 | 29:21.50 | 4:06.25 | 132125 | 150599
9 | 33:28.00 | 2:37.65 | 150600 | 162439
10 | 36:05.65 | 3:15.47 | 162440 | 177111
11 | 39:21.37 | 2:06.45 | 177112 | 186606
12 | 41:28.07 | 4:20.43 | 186607 | 206149
13 | 45:48.50 | 2:11.62 | 206150 | 216036
14 | 48:00.37 | 1:42.38 | 216037 | 223724
15 | 49:43.00 | 2:05.62 | 223725 | 233161
16 | 51:48.62 | 2:19.00 | 233162 | 243586
17 | 54:07.62 | 1:41.25 | 243587 | 251186
18 | 55:49.12 | 1:11.20 | 251187 | 256531
Range status and errors
Selected range
Filename D:\Franck Pourcel - Collection (FLAC) [by italia57]\1992 - Pages Celebres 6 [CDZ 7 67683 2]\Franck Pourcel - Pages celebres 6 (CDZ 7 67683 2).wav
Peak level 98.4 %
Extraction speed 4.1 X
Range quality 100.0 %
Test CRC B562F82E
Copy CRC B562F82E
Copy OK
No errors occurred
AccurateRip summary
Track 1 not present in database
Track 2 not present in database
Track 3 not present in database
Track 4 not present in database
Track 5 not present in database
Track 6 not present in database
Track 7 not present in database
Track 8 not present in database
Track 9 not present in database
Track 10 not present in database
Track 11 not present in database
Track 12 not present in database
Track 13 not present in database
Track 14 not present in database
Track 15 not present in database
Track 16 not present in database
Track 17 not present in database
Track 18 not present in database
None of the tracks are present in the AccurateRip database
End of status report
---- CUETools DB Plugin V2.1.4
[CTDB TOCID: WbhDASuSvdKBlQubt7Orls9ZF1Y-] disk not present in database
Submit result: WbhDASuSvdKBlQubt7Orls9ZF1Y- has been uploaded
==== Log checksum F2C9591F545826D3535F124AF8DF57C3EEB50EA24562A5827AFB3F8AF8D70D44 ====

1992. Pages celebres 7

- Год выпуска диска : 1992
Производитель диска : EU
Аудио кодек : FLAC
Тип рипа : image+.cue (Test & Copy)
Битрейт аудио : lossless
Продолжительность : 68:27
Лейбл : EMI
Каталожный номер : CDZ 7 67684 2
Источник (релизер): Рип оригинального диска из личной коллекции
Сканы: прилагаются


1. Granada (4:55)
2. Sur un marche persan (6:39)
3. Ballet egyptien (3:24)
4. Concerto pour deux mandolines: Andante (2:33)
5. Espana (3:07)
6. Dans le jardin d'un monastere (5:40)
7. Aida (Les trompettes d'Aida) (2:26)
8. Concerto de Noёl (5:05)
9. Valse de Coppelia (3:13)
10. Marche Hongroise [de 'La damnation de Faust'] (3:23)
11. Greensleeves (3:12)
12. Valse No. 3 en la mineur, op.34 No. 2 (4:51)
13. Jesus que ma joie demeure (3:04)
14. Te Deum (Theme) (1:33)
15. Bolero (5:23)
16. Menuet 'L'Antique' (3:54)
17. Au matin ['Peer Gynt'] (4:16)
18. Concerto pour mandoline: Largo (1:49)
-

Лог создания рипа

Exact Audio Copy V1.0 beta 3 from 29. August 2011
EAC extraction logfile from 3. September 2013, 12:55
Franck Pourcel / Pages celebres 7
Used drive : TSSTcorpCDDVDW TS-L633C Adapter: 2 ID: 0
Read mode : Secure
Utilize accurate stream : Yes
Defeat audio cache : Yes
Make use of C2 pointers : No
Read offset correction : 6
Overread into Lead-In and Lead-Out : No
Fill up missing offset samples with silence : Yes
Delete leading and trailing silent blocks : No
Null samples used in CRC calculations : Yes
Used interface : Native Win32 interface for Win NT & 2000
Used output format : Internal WAV Routines
Sample format : 44.100 Hz; 16 Bit; Stereo
TOC of the extracted CD
Track | Start | Length | Start sector | End sector
---------------------------------------------------------
1 | 0:00.33 | 4:55.35 | 33 | 22192
2 | 4:55.68 | 6:39.62 | 22193 | 52179
3 | 11:35.55 | 3:24.55 | 52180 | 67534
4 | 15:00.35 | 2:33.10 | 67535 | 79019
5 | 17:33.45 | 3:07.08 | 79020 | 93052
6 | 20:40.53 | 5:40.45 | 93053 | 118597
7 | 26:21.23 | 2:26.50 | 118598 | 129597
8 | 28:47.73 | 5:05.37 | 129598 | 152509
9 | 33:53.35 | 3:13.70 | 152510 | 167054
10 | 37:07.30 | 3:23.10 | 167055 | 182289
11 | 40:30.40 | 3:12.00 | 182290 | 196689
12 | 43:42.40 | 4:51.43 | 196690 | 218557
13 | 48:34.08 | 3:04.57 | 218558 | 232414
14 | 51:38.65 | 1:33.28 | 232415 | 239417
15 | 53:12.18 | 5:23.40 | 239418 | 263682
16 | 58:35.58 | 3:54.47 | 263683 | 281279
17 | 62:30.30 | 4:16.38 | 281280 | 300517
18 | 66:46.68 | 1:49.40 | 300518 | 308732
Range status and errors
Selected range
Filename D:\Franck Pourcel - Collection (FLAC) [by italia57]\1992 - Pages Celebres 7 [CDZ 7 67684 2]\Franck Pourcel - Pages celebres 7 (CDZ 7 67684 2).wav
Peak level 98.8 %
Extraction speed 4.2 X
Range quality 100.0 %
Test CRC E415AD73
Copy CRC E415AD73
Copy OK
No errors occurred
AccurateRip summary
Track 1 accurately ripped (confidence 1) [FF7F894B] (AR v1)
Track 2 accurately ripped (confidence 1) [51BFDDDF] (AR v1)
Track 3 accurately ripped (confidence 1) [2CD79015] (AR v1)
Track 4 accurately ripped (confidence 1) [59CC9C07] (AR v1)
Track 5 accurately ripped (confidence 1) [136BE62A] (AR v1)
Track 6 accurately ripped (confidence 1) [069AB2C3] (AR v1)
Track 7 accurately ripped (confidence 1) [63BEA0B2] (AR v1)
Track 8 accurately ripped (confidence 1) [238D9FD6] (AR v1)
Track 9 accurately ripped (confidence 1) [B9E451AA] (AR v1)
Track 10 accurately ripped (confidence 1) [9D473BCB] (AR v1)
Track 11 accurately ripped (confidence 1) [354BF352] (AR v1)
Track 12 accurately ripped (confidence 1) [2BDFEE3E] (AR v1)
Track 13 accurately ripped (confidence 1) [70988EE7] (AR v1)
Track 14 accurately ripped (confidence 1) [B6DC00A8] (AR v1)
Track 15 accurately ripped (confidence 1) [C3CCB58B] (AR v1)
Track 16 not present in database
Track 17 not present in database
Track 18 not present in database
15 track(s) accurately ripped
3 track(s) not present in the AccurateRip database
Some tracks could not be verified as accurate
End of status report
---- CUETools DB Plugin V2.1.4
[CTDB TOCID: Y3DOWtgeXfA1mzs56diPCZopX3A-] disk not present in database
Submit result: Y3DOWtgeXfA1mzs56diPCZopX3A- has been uploaded
==== Log checksum F9C31EE059E653EAEAB9FE579E2AA56312F497E84D8210080510DF809F42B911 ====

1992. Pages celebres 8

- Год выпуска диска : 1992
Производитель диска : EU
Аудио кодек : FLAC
Тип рипа : image+.cue (Test & Copy)
Битрейт аудио : lossless
Продолжительность : 71:09
Лейбл : EMI
Каталожный номер : CDZ 7 67685 2
Источник (релизер): Рип оригинального диска из личной коллекции
Сканы: прилагаются


01. Romeo et Juliette [Valse Ariette] (4:00)
02. Les pecheurs de perles [Romance] (4:11)
03. Rigoletto [Comme la plume au vent] (1:59)
04. Carmen [Habanera] (3:14)
05. Tannhauser [Romance a l'etoile] (4:06)
06. Le roi d'Ys [Vainement, ma bien-aimee] (2:44)
07. Nabucco [Va, pensiero] (3:44)
08. Norma [Casta Diva] (4:25)
09. Don Juan [Serenade] (2:05)
10. Les noces de Figaro [Mon coeur soupire] (3:52)
11. La grande porte de Kiev (5:31)
12. Gymnopedie No. 1 (3:04)
13. Cavalleria Rusticana [Intermezzo] (4:13)
14. Sicilienne (3:53)
15. Carmen [Ouverture] (4:00)
16. Tango (4:02)
17. Les vepres siciliennes [Ouverture] (6:22)
18. Danse norvegienne No. 2 (2:15)
19. Gymnopedie No. 3 (3:29)
-

Лог создания рипа

Exact Audio Copy V1.0 beta 3 from 29. August 2011
EAC extraction logfile from 3. September 2013, 14:08
Franck Pourcel / Pages celebres 8
Used drive : TSSTcorpCDDVDW SN-S082N Adapter: 3 ID: 0
Read mode : Secure
Utilize accurate stream : Yes
Defeat audio cache : Yes
Make use of C2 pointers : No
Read offset correction : 6
Overread into Lead-In and Lead-Out : No
Fill up missing offset samples with silence : Yes
Delete leading and trailing silent blocks : No
Null samples used in CRC calculations : Yes
Used interface : Native Win32 interface for Win NT & 2000
Used output format : Internal WAV Routines
Sample format : 44.100 Hz; 16 Bit; Stereo
TOC of the extracted CD
Track | Start | Length | Start sector | End sector
---------------------------------------------------------
1 | 0:00.33 | 4:00.62 | 33 | 18094
2 | 4:01.20 | 4:11.23 | 18095 | 36942
3 | 8:12.43 | 1:59.47 | 36943 | 45914
4 | 10:12.15 | 3:14.15 | 45915 | 60479
5 | 13:26.30 | 4:06.50 | 60480 | 78979
6 | 17:33.05 | 2:44.10 | 78980 | 91289
7 | 20:17.15 | 3:44.40 | 91290 | 108129
8 | 24:01.55 | 4:25.70 | 108130 | 128074
9 | 28:27.50 | 2:05.18 | 128075 | 137467
10 | 30:32.68 | 3:52.37 | 137468 | 154904
11 | 34:25.30 | 5:31.48 | 154905 | 179777
12 | 39:57.03 | 3:04.62 | 179778 | 193639
13 | 43:01.65 | 4:13.08 | 193640 | 212622
14 | 47:14.73 | 3:53.72 | 212623 | 230169
15 | 51:08.70 | 4:00.38 | 230170 | 248207
16 | 55:09.33 | 4:02.47 | 248208 | 266404
17 | 59:12.05 | 6:22.68 | 266405 | 295122
18 | 65:34.73 | 2:15.32 | 295123 | 305279
19 | 67:50.30 | 3:29.03 | 305280 | 320957
Range status and errors
Selected range
Filename D:\Franck Pourcel - Collection (FLAC) [by italia57]\1992 - Pages Celebres 8 [CDZ 7 67685 2]\Franck Pourcel - Pages celebres 8 (CDZ 7 67685 2).wav
Peak level 98.8 %
Extraction speed 1.1 X
Range quality 100.0 %
Test CRC EFA542DF
Copy CRC EFA542DF
Copy OK
No errors occurred
AccurateRip summary
Track 1 not present in database
Track 2 not present in database
Track 3 not present in database
Track 4 not present in database
Track 5 not present in database
Track 6 not present in database
Track 7 not present in database
Track 8 not present in database
Track 9 not present in database
Track 10 not present in database
Track 11 not present in database
Track 12 not present in database
Track 13 not present in database
Track 14 not present in database
Track 15 not present in database
Track 16 not present in database
Track 17 not present in database
Track 18 not present in database
Track 19 not present in database
None of the tracks are present in the AccurateRip database
End of status report
---- CUETools DB Plugin V2.1.4
[CTDB TOCID: ZoFGvmoS7znBi8LypBaQJr.hY04-] database access error: Время ожидания операции истекло
==== Log checksum 6FEB2834AE348BB94C757270ADE74CFB3E80061646268B639D22385C273D8AB1 ====



Показать сообщения:    

Текущее время: 07-Дек 19:26

Часовой пояс: UTC + 3


Вы не можете начинать темы
Вы не можете отвечать на сообщения
Вы не можете редактировать свои сообщения
Вы не можете удалять свои сообщения
Вы не можете голосовать в опросах
Вы не можете прикреплять файлы к сообщениям
Вы не можете скачивать файлы