(Classical Crossover, Ethnic, Experimental) Hughes de Courson (Hughues De Courson, Hugues De Courson) - Lux Obscura: Un Projet Electro-Medieval (a medieval electronic project) - 2003, FLAC (tracks+.cue) lossless


 

[Цитировать]

Hughes de Courson / Lux Obscura: Un Projet Electro-Medieval
Жанр: Classical Crossover, Ethnic, Experimental
Страна-производитель диска: USA
Год издания диска: 2003
Издатель (лейбл): EMI Records Ltd./Virgin Classics
Номер по каталогу: 7243 5 45634 2 3
Страна: France
Аудиокодек: FLAC
Тип рипа: tracks+.cue
Битрейт аудио: lossless
Продолжительность: 58:47
Источник: собственный рип
Наличие сканов в содержимом раздачи: да
Треклист:
1. Stella splendens (4:45)
2. Passu torratu (4:46)
3. Muort' oramai (6:29)
4. Alle (4:28)
5. Fera pessima (2:49)
6. Loyaute (3:39)
7. Saltarell (5:19)
8. Lux obscura (6:45)
9. Canon enigmatique de la cour du roi Henry VIII (0:33)
10. Sederunt principes (3:42)
11. Biaute (3:27)
12. Puzzle canon (1:42)
13. Qui n'aroit autre deport (10:23)

Лог создания рипа

Exact Audio Copy V1.0 beta 3 from 29. August 2011
EAC extraction logfile from 24. October 2012, 15:52
Hugues de Courson / Lux Obscura: Un Projet Electro-Medieval
Used drive : Optiarc DVD RW AD-7260S Adapter: 2 ID: 0
Read mode : Secure
Utilize accurate stream : Yes
Defeat audio cache : Yes
Make use of C2 pointers : No
Read offset correction : 48
Overread into Lead-In and Lead-Out : No
Fill up missing offset samples with silence : Yes
Delete leading and trailing silent blocks : No
Null samples used in CRC calculations : Yes
Used interface : Native Win32 interface for Win NT & 2000
Gap handling : Appended to previous track
Used output format : User Defined Encoder
Selected bitrate : 896 kBit/s
Quality : High
Add ID3 tag : No
Command line compressor : C:\Program Files\Exact Audio Copy 1.0beta3\Flac\flac.exe
Additional command line options : -V -8 -T "Genre=%genre%" -T "Artist=%artist%" -T "Title=%title%" -T "Album=%albumtitle%" -T "Date=%year%" -T "Tracknumber=%tracknr%" -T "Comment=%comment%" %source%
TOC of the extracted CD
Track | Start | Length | Start sector | End sector
---------------------------------------------------------
1 | 0:00.00 | 4:45.58 | 0 | 21432
2 | 4:45.58 | 4:46.28 | 21433 | 42910
3 | 9:32.11 | 6:29.32 | 42911 | 72117
4 | 16:01.43 | 4:28.33 | 72118 | 92250
5 | 20:30.01 | 2:49.12 | 92251 | 104937
6 | 23:19.13 | 3:39.25 | 104938 | 121387
7 | 26:58.38 | 5:19.35 | 121388 | 145347
8 | 32:17.73 | 6:45.48 | 145348 | 175770
9 | 39:03.46 | 0:33.47 | 175771 | 178292
10 | 39:37.18 | 3:42.48 | 178293 | 194990
11 | 43:19.66 | 3:27.37 | 194991 | 210552
12 | 46:47.28 | 1:42.65 | 210553 | 218267
13 | 48:30.18 | 10:23.25 | 218268 | 265017
14 | 61:25.43 | 6:38.55 | 276418 | 306322
Track 1
Filename D:\! - RIP FILES\Hugues de Courson - Lux Obscura Un Projet Electro-Medieval (2003)-flac\01. Stella splendens.wav
Pre-gap length 0:00:02.00
Peak level 100.0 %
Extraction speed 2.7 X
Track quality 100.0 %
Test CRC 1F3D6AA1
Copy CRC 1F3D6AA1
Track not present in AccurateRip database
Copy OK
Track 2
Filename D:\! - RIP FILES\Hugues de Courson - Lux Obscura Un Projet Electro-Medieval (2003)-flac\02. Passu torratu.wav
Pre-gap length 0:00:02.18
Peak level 87.0 %
Extraction speed 2.9 X
Track quality 100.0 %
Test CRC E0C713BB
Copy CRC E0C713BB
Track not present in AccurateRip database
Copy OK
Track 3
Filename D:\! - RIP FILES\Hugues de Courson - Lux Obscura Un Projet Electro-Medieval (2003)-flac\03. Muort' oramai.wav
Pre-gap length 0:00:00.20
Peak level 100.0 %
Extraction speed 3.1 X
Track quality 99.9 %
Test CRC 13E44E75
Copy CRC 13E44E75
Track not present in AccurateRip database
Copy OK
Track 4
Filename D:\! - RIP FILES\Hugues de Courson - Lux Obscura Un Projet Electro-Medieval (2003)-flac\04. Alle.wav
Pre-gap length 0:00:02.20
Peak level 100.0 %
Extraction speed 3.5 X
Track quality 100.0 %
Test CRC D8EF249A
Copy CRC D8EF249A
Track not present in AccurateRip database
Copy OK
Track 5
Filename D:\! - RIP FILES\Hugues de Courson - Lux Obscura Un Projet Electro-Medieval (2003)-flac\05. Fera pessima.wav
Pre-gap length 0:00:01.05
Peak level 100.0 %
Extraction speed 3.4 X
Track quality 100.0 %
Test CRC 745933A7
Copy CRC 745933A7
Track not present in AccurateRip database
Copy OK
Track 6
Filename D:\! - RIP FILES\Hugues de Courson - Lux Obscura Un Projet Electro-Medieval (2003)-flac\06. Loyauté.wav
Pre-gap length 0:00:01.23
Peak level 79.4 %
Extraction speed 3.7 X
Track quality 100.0 %
Test CRC 43E7B2A7
Copy CRC 43E7B2A7
Track not present in AccurateRip database
Copy OK
Track 7
Filename D:\! - RIP FILES\Hugues de Courson - Lux Obscura Un Projet Electro-Medieval (2003)-flac\07. Saltarell.wav
Pre-gap length 0:00:00.21
Peak level 94.4 %
Extraction speed 4.0 X
Track quality 100.0 %
Test CRC 588A7922
Copy CRC 588A7922
Track not present in AccurateRip database
Copy OK
Track 8
Filename D:\! - RIP FILES\Hugues de Courson - Lux Obscura Un Projet Electro-Medieval (2003)-flac\08. Lux obscura.wav
Pre-gap length 0:00:01.33
Peak level 92.9 %
Extraction speed 4.4 X
Track quality 100.0 %
Test CRC CB4EE799
Copy CRC CB4EE799
Track not present in AccurateRip database
Copy OK
Track 9
Filename D:\! - RIP FILES\Hugues de Courson - Lux Obscura Un Projet Electro-Medieval (2003)-flac\09. Canon énigmatique de la cour du roi Henry VIII.wav
Pre-gap length 0:00:02.28
Peak level 37.2 %
Extraction speed 2.3 X
Track quality 100.0 %
Test CRC B7219E42
Copy CRC B7219E42
Track not present in AccurateRip database
Copy OK
Track 10
Filename D:\! - RIP FILES\Hugues de Courson - Lux Obscura Un Projet Electro-Medieval (2003)-flac\10. Sederunt principes.wav
Pre-gap length 0:00:01.70
Peak level 89.6 %
Extraction speed 4.3 X
Track quality 100.0 %
Test CRC CFA875AB
Copy CRC CFA875AB
Track not present in AccurateRip database
Copy OK
Track 11
Filename D:\! - RIP FILES\Hugues de Courson - Lux Obscura Un Projet Electro-Medieval (2003)-flac\11. Biauté.wav
Pre-gap length 0:00:01.56
Peak level 79.4 %
Extraction speed 3.8 X
Track quality 99.9 %
Test CRC ED05D8C2
Copy CRC ED05D8C2
Track not present in AccurateRip database
Copy OK
Track 12
Filename D:\! - RIP FILES\Hugues de Courson - Lux Obscura Un Projet Electro-Medieval (2003)-flac\12. Puzzle canon.wav
Pre-gap length 0:00:01.63
Peak level 42.4 %
Extraction speed 3.8 X
Track quality 100.0 %
Test CRC 99B88D0A
Copy CRC 99B88D0A
Track not present in AccurateRip database
Copy OK
Track 13
Filename D:\! - RIP FILES\Hugues de Courson - Lux Obscura Un Projet Electro-Medieval (2003)-flac\13. Qui n'aroit autre deport.wav
Pre-gap length 0:00:02.40
Peak level 90.3 %
Extraction speed 5.3 X
Track quality 100.0 %
Test CRC 370FF8DA
Copy CRC 370FF8DA
Track not present in AccurateRip database
Copy OK
None of the tracks are present in the AccurateRip database
No errors occurred
End of status report
==== Log checksum 785BD0C3D09E3A21AF71ECFAFED11B6491B93080CD9850F225DA3E35148349A0 ====

Содержание индексной карты (.CUE)

REM GENRE Electro-Medieval
REM DATE 2003
REM DISCID C70FF40E
REM COMMENT "ExactAudioCopy v1.0b3"
PERFORMER "Hugues de Courson"
TITLE "Lux Obscura: Un Projet Electro-Medieval"
FILE "01. Stella splendens.wav" WAVE
TRACK 01 AUDIO
TITLE "Stella splendens"
PERFORMER "Hugues de Courson"
ISRC FR34F0300010
INDEX 01 00:00:00
TRACK 02 AUDIO
TITLE "Passu torratu"
PERFORMER "Hugues de Courson"
ISRC FR34F0300020
INDEX 00 04:43:40
FILE "02. Passu torratu.wav" WAVE
INDEX 01 00:00:00
TRACK 03 AUDIO
TITLE "Muort' oramai"
PERFORMER "Hugues de Courson"
ISRC FR34F0300030
INDEX 00 04:46:08
FILE "03. Muort' oramai.wav" WAVE
INDEX 01 00:00:00
TRACK 04 AUDIO
TITLE "Alle"
PERFORMER "Hugues de Courson"
ISRC FR34F0300040
INDEX 00 06:27:12
FILE "04. Alle.wav" WAVE
INDEX 01 00:00:00
TRACK 05 AUDIO
TITLE "Fera pessima"
PERFORMER "Hugues de Courson"
ISRC FR34F0300050
INDEX 00 04:27:28
FILE "05. Fera pessima.wav" WAVE
INDEX 01 00:00:00
TRACK 06 AUDIO
TITLE "Loyaute"
PERFORMER "Hugues de Courson"
ISRC FR34F0300060
INDEX 00 02:47:64
FILE "06. Loyaute.wav" WAVE
INDEX 01 00:00:00
TRACK 07 AUDIO
TITLE "Saltarell"
PERFORMER "Hugues de Courson"
ISRC FR34F0300070
INDEX 00 03:39:04
FILE "07. Saltarell.wav" WAVE
INDEX 01 00:00:00
TRACK 08 AUDIO
TITLE "Lux obscura"
PERFORMER "Hugues de Courson"
ISRC FR34F0300080
INDEX 00 05:18:02
FILE "08. Lux obscura.wav" WAVE
INDEX 01 00:00:00
TRACK 09 AUDIO
TITLE "Canon enigmatique de la cour du roi Henry VIII"
PERFORMER "Hugues de Courson"
ISRC FR34F0300090
INDEX 00 06:43:20
FILE "09. Canon enigmatique de la cour du roi Henry VIII.wav" WAVE
INDEX 01 00:00:00
TRACK 10 AUDIO
TITLE "Sederunt principes"
PERFORMER "Hugues de Courson"
ISRC FR34F0300100
INDEX 00 00:31:52
FILE "10. Sederunt principes.wav" WAVE
INDEX 01 00:00:00
TRACK 11 AUDIO
TITLE "Biaute"
PERFORMER "Hugues de Courson"
ISRC FR34F0300110
INDEX 00 03:40:67
FILE "11. Biaute.wav" WAVE
INDEX 01 00:00:00
TRACK 12 AUDIO
TITLE "Puzzle canon"
PERFORMER "Hugues de Courson"
ISRC FR34F0300120
INDEX 00 03:25:49
FILE "12. Puzzle canon.wav" WAVE
INDEX 01 00:00:00
TRACK 13 AUDIO
TITLE "Qui n'aroit autre deport"
PERFORMER "Hugues de Courson"
ISRC FR34F0300130
INDEX 00 01:40:25
FILE "13. Qui n'aroit autre deport.wav" WAVE
INDEX 01 00:00:00
TRACK 14 MODEx/2xxx
TITLE "Track14"
PERFORMER "Hugues de Courson"
INDEX 00 10:23:25
Доп. информация: http://www.lastfm.ru/music/Hughes+de+Courson

Об исполнителе (группе)

http://fr.wikipedia.org/wiki/Hughes_de_Courson

Об альбоме (сборнике)




Показать сообщения:    

Текущее время: 05-Дек 13:34

Часовой пояс: UTC + 3


Вы не можете начинать темы
Вы не можете отвечать на сообщения
Вы не можете редактировать свои сообщения
Вы не можете удалять свои сообщения
Вы не можете голосовать в опросах
Вы не можете прикреплять файлы к сообщениям
Вы не можете скачивать файлы