Марио Ланца – певец богов / BBC - Mario Lanza: Singing to the Gods (Марк Кайдл / Mark Kidel) [2005, документальный, биография, DVB] DVO (Техномедия)


Статистика раздачи [Обновить пиров]
Размер:  1.09 GB   |    Зарегистрирован:  8 месяцев 18 дней   |    Скачан:  0 раз

Полного источника не было: Никогда

Личеров:  75  [  0 KB/s  ]   Подробная статистика пиров
 
   
 
 
 

[Цитировать]

Марио Ланца – певец богов
BBC - Mario Lanza: Singing to the Gods- Год выпуска: 2005
Страна: Великобритания
Жанр: документальный, биография
Продолжительность: 00:59:01
Перевод: Профессиональный (двухголосый) (компания ООО "Техномедия" по заказу телеканала "Кто есть кто")
Русские субтитры: нет
Режиссер: Марк Кайдл / Mark Kidel
Описание: По одноименной биографической книге Дерека Маннеринга / Derek Mannering (published by Robert Hale Ltd., London in October 2001).
Марио Ланца (1921–1959) был величайшим американским тенором всех времен. Его золотой голос и соответствующий облик сводил с ума публику в течение послевоенного десятилетия. Его фильмы и записи приблизили оперу в массы. Он был суперзвездой-тенором и оказал огромное влияние на многих певцов от Элвиса Пресли до трех великих теноров современности. Он мог легко переходить от волнующего богатого мира итальянской оперы к приторной чувственности популярных и хитовых песен. На пике своей карьеры он продал больше записей, чем кто-либо другой, включая Фрэнка Синатру. Многие истории, которые Ланца сыграл на сцене и в кино, были отражением его собственных испытаний и проблем в жизни. Пленник собственного образа, он постоянно и мучительно метался между реальностью и выдуманным миром. (из предисловия к фильму)
Доп. информация: Собственная запись со спутника (канал "Кто есть кто", пакет НТВ+).
Качество: DVB
Формат: MPG
Видео кодек: MPEG2
Аудио кодек: MP2
Видео: MPEG Video 2, 704x576@768x576 (4:3), 25 fps, ~2388 kbps avg
Аудио: 48 kHz, MPEG Audio 2, 2 ch, ~192.00 kbps avg

MediaInfo

Полное имя                               : H:\My Torrents\[apreder]Mario_Lanza_Singing_to_the_Gods(2005)DVB.mpg
Формат : MPEG-PS
Размер файла : 1,09 Гбайт
Продолжительность : 59 м.
Режим общего битрейта : Переменный
Общий поток : 2633 Кбит/сек
Видео
Идентификатор : 224 (0xE0)
Формат : MPEG Video
Версия формата : Version 2
Профиль формата : Main@Main
Параметр BVOP формата : Да
Параметр матрицы формата : Выборочная
Продолжительность : 59 м.
Вид битрейта : Переменный
Битрейт : 2388 Кбит/сек
Ширина : 704 пикселя
Высота : 576 пикселей
Соотношение сторон : 4:3
Частота кадров : 25,000 кадров/сек
Стандарт вещания : PAL
Цветовое пространство : YUV
Субдискретизация насыщенности : 4:2:0
Битовая глубина : 8 бит
Метод сжатия : С потерями
Бит/(Пиксели*Кадры) : 0.236
Размер потока : 1008 Мбайт (91%)
Аудио
Идентификатор : 192 (0xC0)
Формат : MPEG Audio
Версия формата : Version 1
Профиль формата : Layer 2
Продолжительность : 59 м.
Вид битрейта : Постоянный
Битрейт : 192 Кбит/сек
Каналы : 2 канала
Частота : 48,0 КГц
Метод сжатия : С потерями
Размер потока : 81,1 Мбайт (7%)

Скриншоты


Скриншоты анаморфированные


-439/421√
[teatrix.ru].t16627.torrent 
Торрент: Зарегистрирован [ 2016-03-16 12:39 ] · BA4F0C6A95C218A16CF8E538867E09F967E1ABA8

Скачать .torrent

Скачать

11 KB

Статус: проверено
Скачан: 0 раз
Размер: 1.09 GB
terms.php



Быстрый ответ

Имя:

      
Для отправки сообщений необходимо включить JavaScript
Показать сообщения:    

Текущее время: 03-Дек 16:43

Часовой пояс: UTC + 3


Вы можете начинать темы
Вы можете отвечать на сообщения
Вы не можете редактировать свои сообщения
Вы не можете удалять свои сообщения
Вы не можете голосовать в опросах
Вы не можете прикреплять файлы к сообщениям
Вы можете скачивать файлы