Сергей Есенин. Собрание студии "Архив-Коллекция" (Марина Садчикова) [1995, документальный, биография, фильм-портрет, DVB]


Статистика раздачи [Обновить пиров]
Размер:  819 MB   |    Зарегистрирован:  8 месяцев 19 дней   |    Скачан:  0 раз

Полного источника не было: Никогда

 
   
 
 
 

[Цитировать]

Сергей Есенин
Собрание студии "Архив-Коллекция"- Год выпуска: 1995
Страна: Россия
Жанр: документальный, биография, фильм-портрет
Продолжительность: 00:39:11
Перевод: Не требуется
Русские субтитры: нет
Режиссер: Марина Садчикова
Описание: Последний год жизни Есенина прошел в болезнях, метаниях, пьянстве. 23 декабря 1925 г. он "сбежал" из Москвы в Ленинград, где остановился в № 5 гостиницы "Англетер" . Но северная столица не принесла успокоения. Вечером 27 декабря в есенинской папке уже лежало написанное кровью стихотворение "До свиданья, друг мой, до свиданья...", а утром 28-го Есенина нашли повесившимся на трубе парового отопления...
Любящий Россию… и жизнь. Тяжёлую, порой невыносимую жизнь, в которой присутствовала кровь войн и революций, нереально красивые женщины, дым и чад московских кабаков, молочное тепло русской избы и, наконец, петля, неизвестно кем и для чего затянутая на шее золотоволосого человека. Кто он – Сергей Есенин? Документальный фильм "Сергей Есенин" – необычный взгляд на сложную судьбу поэта, попытка разобраться в ней, осмыслить драму мятежной русской души…
В фильме использованы материалы Российского государственного архива кинофотодокументов. Звучат фрагменты из музыкальных произведений В. Гаврилина, А. Шнитке.
Доп. информация: Собственная запись со спутника (канал "Кто есть кто", пакет НТВ+).
Качество: DVB
Формат: MPG
Видео кодек: MPEG2
Аудио кодек: MP2
Видео: MPEG Video 2, 704x576@768x576 (4:3), 25 fps, ~2672 kbps avg
Аудио: 48 kHz, MPEG Audio 2, 2 ch, ~192.00 kbps avg

MediaInfo

Полное имя                               : H:\My Torrents\[apreder]Sergei_Yesenin(1995)DVB.mpg
Формат : MPEG-PS
Размер файла : 819 Мбайт
Продолжительность : 39 м.
Режим общего битрейта : Переменный
Общий поток : 2923 Кбит/сек
Видео
Идентификатор : 224 (0xE0)
Формат : MPEG Video
Версия формата : Version 2
Профиль формата : Main@Main
Параметр BVOP формата : Да
Параметр матрицы формата : Выборочная
Параметр GOP формата : M=3, N=24
Продолжительность : 39 м.
Вид битрейта : Переменный
Битрейт : 2672 Кбит/сек
Ширина : 704 пикселя
Высота : 576 пикселей
Соотношение сторон : 4:3
Частота кадров : 25,000 кадров/сек
Стандарт вещания : PAL
Цветовое пространство : YUV
Субдискретизация насыщенности : 4:2:0
Битовая глубина : 8 бит
Тип развёртки : Прогрессивная
Порядок развёртки : Верхнее поле первое
Метод сжатия : С потерями
Бит/(Пиксели*Кадры) : 0.264
Размер потока : 749 Мбайт (91%)
Аудио
Идентификатор : 192 (0xC0)
Формат : MPEG Audio
Версия формата : Version 1
Профиль формата : Layer 2
Продолжительность : 39 м.
Вид битрейта : Постоянный
Битрейт : 192 Кбит/сек
Каналы : 2 канала
Частота : 48,0 КГц
Метод сжатия : С потерями
Размер потока : 53,8 Мбайт (7%)

Скриншоты


Скриншоты анаморфированные


-442/424√
[teatrix.ru].t16630.torrent 
Торрент: Зарегистрирован [ 2016-03-16 12:20 ] · 4572957C0352B78C806201CD82E6D358667A4DCB

Скачать .torrent

Скачать

16 KB

Статус: проверено
Скачан: 0 раз
Размер: 819 MB
terms.php



Быстрый ответ

Имя:

      
Для отправки сообщений необходимо включить JavaScript
Показать сообщения:    

Текущее время: 04-Дек 13:16

Часовой пояс: UTC + 3


Вы можете начинать темы
Вы можете отвечать на сообщения
Вы не можете редактировать свои сообщения
Вы не можете удалять свои сообщения
Вы не можете голосовать в опросах
Вы не можете прикреплять файлы к сообщениям
Вы можете скачивать файлы