Марк Шагал. Искусство любви (Михаил Минкин) [2007, документальный, биография, фильм-портрет, DVB]


Статистика раздачи [Обновить пиров]
Размер:  1.13 GB   |    Зарегистрирован:  8 месяцев 19 дней   |    Скачан:  1 раз

Полного источника не было: 6 месяцев 14 дней

 
   
 
 
 

[Цитировать]

Марк Шагал
Искусство любви- Год выпуска: 2007
Страна: Россия
Жанр: документальный, биография, фильм-портрет
Продолжительность: 00:51:59
Перевод: Не требуется
Русские субтитры: нет
Режиссер: Михаил Минкин
В ролях: художник Борис Мессерер, искусствоведы Паола Волкова, Александра Шатских, Ян Брук, Дмитрий Минченок, Софья Черняк, писатель Зоя Богуславская, режиссеры Михаил Вайгер, Кама Гинкас, искусствовед Валерий Дудаков.
Описание: Документальный фильм об отношениях Марка Шагала и его первой жены Беллы. После ее смерти Шагал долгое время оставался безутешным, забросив живопись.
В конце августа 1944 года в Нью-Йорк пришло долгожданное известие: англо-американские войска освободили Париж. Жившая уже три года в вынужденной эмиграции в Америке семья известного французского художника Марка Шагала сразу же стала собираться во Францию. Однако столь долгожданному возвращению не суждено было осуществиться. 2 сентября жена Марка Шагала Белла неожиданно скончалась. Для художника эта потеря стала невосполнимой. На протяжении более чем 30 лет Белла была для него не просто подругой жизни. С ней, и во многом благодаря ей он стал тем, кем его теперь знает практически весь мир. Сам Шагал считал Беллу вечным источником своего вдохновения. (из предисловия к фильму)
Доп. информация: Собственная запись со спутника (канал "Кто есть кто", пакет НТВ+). В отличие от имеющегося на трекере TVRip, в данной раздаче несжатый цифровой поток лучшего качества.
Сравнение скриншотов
Качество: DVB
Формат: MPG
Видео кодек: MPEG2
Аудио кодек: MP2
Видео: MPEG Video 2, 704x576@768x576 (4:3), 25 fps, ~2860 kbps avg
Аудио: 48 kHz, MPEG Audio 2, 2 ch, ~192.00 kbps avg

MediaInfo

Полное имя                               : H:\My Torrents\[apreder]Marc_Chagall(2007)DVB.mpg
Формат : MPEG-PS
Размер файла : 1,13 Гбайт
Продолжительность : 51 м.
Режим общего битрейта : Переменный
Общий поток : 3114 Кбит/сек
Видео
Идентификатор : 224 (0xE0)
Формат : MPEG Video
Версия формата : Version 2
Профиль формата : Main@Main
Параметр BVOP формата : Да
Параметр матрицы формата : Выборочная
Параметр GOP формата : M=3, N=24
Продолжительность : 51 м.
Вид битрейта : Переменный
Битрейт : 2860 Кбит/сек
Ширина : 704 пикселя
Высота : 576 пикселей
Соотношение сторон : 4:3
Частота кадров : 25,000 кадров/сек
Стандарт вещания : PAL
Цветовое пространство : YUV
Субдискретизация насыщенности : 4:2:0
Битовая глубина : 8 бит
Тип развёртки : Чересстрочная
Порядок развёртки : Верхнее поле первое
Метод сжатия : С потерями
Бит/(Пиксели*Кадры) : 0.282
Размер потока : 1,04 Гбайт (92%)
Аудио
Идентификатор : 192 (0xC0)
Формат : MPEG Audio
Версия формата : Version 1
Профиль формата : Layer 2
Продолжительность : 51 м.
Вид битрейта : Постоянный
Битрейт : 192 Кбит/сек
Каналы : 2 канала
Частота : 48,0 КГц
Метод сжатия : С потерями
Размер потока : 71,4 Мбайт (6%)

Скриншоты


Скриншоты анаморфированные


-446/428√
[teatrix.ru].t16633.torrent 
Торрент: Зарегистрирован [ 2016-03-16 12:27 ] · F7284A4AA62E640033D1EB8D00B32F05E93E1677

Скачать .torrent

Скачать

12 KB

Статус: проверено
Скачан: 1 раз
Размер: 1.13 GB
terms.php



Быстрый ответ

Имя:

      
Для отправки сообщений необходимо включить JavaScript
Показать сообщения:    

Текущее время: 04-Дек 13:16

Часовой пояс: UTC + 3


Вы можете начинать темы
Вы можете отвечать на сообщения
Вы не можете редактировать свои сообщения
Вы не можете удалять свои сообщения
Вы не можете голосовать в опросах
Вы не можете прикреплять файлы к сообщениям
Вы можете скачивать файлы