Богини социализма (М. Ананьев) [2012, Документальный, SATRip]


Статистика раздачи [Обновить пиров]
Размер:  748 MB   |    Зарегистрирован:  8 месяцев 17 дней   |    Скачан:  0 раз

Полного источника не было: Никогда

Личеров:  9  [  0 KB/s  ]   Подробная статистика пиров
 
   
 
 
 

[Цитировать]

Богини социализма
Год выпуска: 2012
Страна: Россия
Жанр: Документальный
Продолжительность: 00:52:16
Перевод: Не требуется
Русские субтитры: нет
Режиссер: М. Ананьев
Производство: Студия 8 , 2012
Продюсеры: М. Ананьев, Д. Паршин, О. Вольнов, А. Цвинтарный
Описание:
Их пик популярности пришёлся на семидесятые годы XX века, но по странному стечению обстоятельств сегодня в новостях одно за другим стали появляться имена певиц, которых в СССР знал каждый. В нашей стране их помнят и любят до сих пор. Лили Иванова в семьдесят лет вновь возглавила национальный хит-парад, Марыля Родович раскрыла имена своих "звёздных любовников", Радмила Караклаич "справилась с многолетним пристрастием к алкоголю", а Хелена Вондрачкова судится с бывшими коллегами за свои честь и достоинство. В этом фильме мы покажем, как живут певицы сегодня у себя дома, на Родине. Поделимся эксклюзивными историями, в которых наравне с артистками главным действующим лицом была эпоха. Каждая из них была и есть символ эпохи своей страны. Радмила Караклаич – из Югославии, Лили Иванова - из Болгарии, Марыля Родович – из Польши, Хелена Вондрачкова – из Чехословакии. И лишь сегодня мы понимаем, что за фасадом легкомысленных песенок тех, кто, по мнению идеологов, должен был символизировать для нас "зарубежную эстраду", стояли отнюдь не легкие отношения. Часто по ту сторону занавеса кипели настоящие страсти, и юные эстрадные дивы были вовлечены во взрослые игры с участием расчётливых спецслужб, похотливых чиновников, амбициозных коллег и даже престарелых первых лиц партии и правительства.
Доп. информация: Релиз -

Рип чистый. Без посторонних надписей.
Перекодировано программой XviD4PSP 5
Качество: SATRip
Формат: AVI
Видео кодек: XVID
Аудио кодек: MP3
Видео: 720x400 (16:9) 25.00fps 1 799 Kbps, 0.250 bit/pixel
Аудио: MPEG Audio 48000Hz stereo 192 Кбит/сек

Скриншоты


Скринлист

MI

General
Complete name : J:\ВЫКЛАДКА\SATRip\01 ДОКУМЕНТАЛЬНЫЙ\Богини социализма (2012, Докуменатльный) (MYDIMKA).avi
Format : AVI
Format/Info : Audio Video Interleave
File size : 748 MiB
Duration : 52mn 16s
Overall bit rate : 2 001 Kbps
Writing application : VirtualDubMod 1.5.10.3 | www.virtualdub-fr.org || (build 2550/release)
Writing library : VirtualDubMod build 2550/release
Video
ID : 0
Format : MPEG-4 Visual
Format profile : Advanced Simple@L5
Format settings, BVOP : 2
Format settings, QPel : No
Format settings, GMC : No warppoints
Format settings, Matrix : Default (H.263)
Muxing mode : Packed bitstream
Codec ID : XVID
Codec ID/Hint : XviD
Duration : 52mn 16s
Bit rate : 1 799 Kbps
Width : 720 pixels
Height : 400 pixels
Display aspect ratio : 16:9
Frame rate : 25.000 fps
Color space : YUV
Chroma subsampling : 4:2:0
Bit depth : 8 bits
Scan type : Progressive
Compression mode : Lossy
Bits/(Pixel*Frame) : 0.250
Stream size : 673 MiB (90%)
Writing library : XviD 1.2.1 (UTC 2008-12-04)
Audio
ID : 1
Format : MPEG Audio
Format version : Version 1
Format profile : Layer 3
Codec ID : 55
Codec ID/Hint : MP3
Duration : 52mn 16s
Bit rate mode : Constant
Bit rate : 192 Kbps
Channel(s) : 2 channels
Sampling rate : 48.0 KHz
Compression mode : Lossy
Stream size : 71.8 MiB (10%)
Alignment : Aligned on interleaves
Interleave, duration : 40 ms (1.00 video frame)
Interleave, preload duration : 504 ms
Writing library : LAME3.99r
Encoding settings : -m s -V 4 -q 2 -lowpass 18.6 -b 192
[teatrix.ru].t16635.torrent 
Торрент: Зарегистрирован [ 2016-03-16 12:43 ] · D0F4A664B9AEC541657D266261FE3B1097290467

Скачать .torrent

Скачать

15 KB

Статус: проверено
Скачан: 0 раз
Размер: 748 MB
terms.php



Быстрый ответ

Имя:

      
Для отправки сообщений необходимо включить JavaScript
Показать сообщения:    

Текущее время: 03-Дек 01:21

Часовой пояс: UTC + 3


Вы можете начинать темы
Вы можете отвечать на сообщения
Вы не можете редактировать свои сообщения
Вы не можете удалять свои сообщения
Вы не можете голосовать в опросах
Вы не можете прикреплять файлы к сообщениям
Вы можете скачивать файлы