Последний из пылко влюбленных. Владимир Зельдин (Студия литературно-художественных программ ТРК "Останкино") [1992, документальный, фильм-портрет, DVB]


Статистика раздачи [Обновить пиров]
Размер:  2.11 GB   |    Зарегистрирован:  8 месяцев 17 дней   |    Скачан:  0 раз

Полного источника не было: Никогда

Личеров:  6  [  0 KB/s  ]   Подробная статистика пиров
 
   
 
 
 

[Цитировать]

Владимир Зельдин
Последний из пылко влюбленных- Год выпуска: 1992
Страна: Россия
Жанр: документальный, фильм-портрет
Продолжительность: 00:59:11
Перевод: Не требуется
Русские субтитры: нет
Режиссер: Студия литературно-художественных программ ТРК "Останкино"
В ролях: Владимир Зельдин, Нина Сазонова, Людмила Голубкина, Станислав Говорухин, Владимир Васильев
Описание: Актер, народный артист СССР Владимир Зельдин рассказывает о режиссерах Иване Пырьеве, Станиславе Говорухине, о великих балеринах и поступлении в хореографическое училище, о съемках фильма "Дядя Ваня", о театре Советской армии. В передаче использованы фрагменты из фильмов "Арбатский мотив", "Десять негритят", "Учитель танцев", "Свинарка и пастух", "Веленсианская вдова"; спектаклей "Деревья умирают стоя", "Последний пылкий влюбленный", "Комическая фантазия о жизни, любви и смерти знаменитого барона Карла Фридриха Иеронима фон Мюнхгаузена"; Юбилейного вечера Владимира Зельдина и концерта "Им аплодировала Италия!" (анонс канала "Ностальгия")
Секрет долголетия от Владимира Зельдина – влюбленность. "Трагедия старости не в том, что ты старый, а в том, что в старости чувствуешь себя молодым", - Владимир Зельдин цитирует Оскара Уайльда, чтобы поспорить с классиком. "Нужно все время быть в ощущении влюбленности. Я, конечно, не чувствую себя таким молодым, каким я был в 30 или 50 лет, но я еще могу и влюбляться, и ухаживать", – делится своими мыслями актер.
Доп. информация: Собственная запись со спутника (канал "Ностальгия", пакет НТВ+).
Качество: DVB
Формат: MPG
Видео кодек: MPEG2
Аудио кодек: MP2
Видео: MPEG Video 2, 720x576@768x576 (4:3), 25 fps, ~4800 kbps avg
Аудио: 48 kHz, MPEG Audio 2, 2 ch, ~192.00 kbps avg

MediaInfo

Полное имя                               : H:\My Torrents\[apreder]Vladimir_Zeldin(1992)DVB.mpg
Формат : MPEG-PS
Размер файла : 2,11 Гбайт
Продолжительность : 59 м.
Режим общего битрейта : Переменный
Общий поток : 5093 Кбит/сек
Видео
Идентификатор : 224 (0xE0)
Формат : MPEG Video
Версия формата : Version 2
Профиль формата : Main@Main
Параметр BVOP формата : Да
Параметр матрицы формата : Выборочная
Параметр GOP формата : M=3, N=36
Продолжительность : 59 м.
Вид битрейта : Переменный
Битрейт : 4800 Кбит/сек
Ширина : 720 пикселей
Высота : 576 пикселей
Соотношение сторон : 4:3
Частота кадров : 25,000 кадров/сек
Стандарт вещания : PAL
Цветовое пространство : YUV
Субдискретизация насыщенности : 4:2:0
Битовая глубина : 8 бит
Тип развёртки : Чересстрочная
Порядок развёртки : Верхнее поле первое
Метод сжатия : С потерями
Бит/(Пиксели*Кадры) : 0.463
Размер потока : 1,98 Гбайт (94%)
Аудио
Идентификатор : 192 (0xC0)
Формат : MPEG Audio
Версия формата : Version 1
Профиль формата : Layer 2
Продолжительность : 59 м.
Вид битрейта : Постоянный
Битрейт : 192 Кбит/сек
Каналы : 2 канала
Частота : 48,0 КГц
Метод сжатия : С потерями
Размер потока : 81,3 Мбайт (4%)

Скриншоты


Скриншоты анаморфированные


-451/433√
[teatrix.ru].t16636.torrent 
Торрент: Зарегистрирован [ 2016-03-16 12:43 ] · 6547347110C94B07E59E411133E767E77AC1184F

Скачать .torrent

Скачать

11 KB

Статус: проверено
Скачан: 0 раз
Размер: 2.11 GB
terms.php



Показать сообщения:    

Текущее время: 02-Дек 23:05

Часовой пояс: UTC + 3


Вы не можете начинать темы
Вы не можете отвечать на сообщения
Вы не можете редактировать свои сообщения
Вы не можете удалять свои сообщения
Вы не можете голосовать в опросах
Вы не можете прикреплять файлы к сообщениям
Вы можете скачивать файлы