Америка в прайм-тайм / America in primetime (Ллойд Крамер / Lloyd Kramer) [2011, Документальный сериал, серия 1-4 (4), HDTVRip] DVO (SET)


Статистика раздачи [Обновить пиров]
Размер:  2.93 GB   |    Зарегистрирован:  8 месяцев 21 день   |    Скачан:  0 раз

Полного источника не было: Никогда

Личеров:  6  [  0 KB/s  ]   Подробная статистика пиров
 
   
 
 
 

[Цитировать]

Америка в прайм-тайм / America in primetime
Год выпуска: 2011
Страна: США
Жанр: Документальный сериал, серия 1-4 (4)
Продолжительность: 00:51:00
Перевод: Профессиональный (двухголосый) SET
Русские субтитры: нет
Режиссер: Ллойд Крамер / Lloyd Kramer
Описание: В этом документальном сериале рассказывается об эволюции персонажей, появляющихся на американском телевидении в прайм тайм, начиная с послевоенного времени и до наших дней. Эти персонажи отражают реальность своего времени, на их формирование большое влияние оказывают события, потрясшие весь мир, такие как Вторая мировая война, война во Вьетнаме и взрывы 11 сентября.
Качество: HDTVRip
Формат: AVI
Видео кодек: DivX
Аудио кодек: AC3
Видео: DivX 5 720x400 (16:9) 25.000fps Bit rate 1850Kbps Bits/(Pixel*Frame) 0.257
Аудио: Dolby AC3 48000Hz 2ch 192 Kbps

Скриншоты

MI

General
Complete name : D:\Torrent\Америка в прайм тайм\01.Америка в прайм тайм.avi
Format : AVI
Format/Info : Audio Video Interleave
File size : 749 MiB
Duration : 51mn 3s
Overall bit rate : 2 051 Kbps
Writing library : VirtualDub build 32842/release
Video
ID : 0
Format : MPEG-4 Visual
Format settings, BVOP : Yes
Format settings, QPel : No
Format settings, GMC : No warppoints
Format settings, Matrix : Default (H.263)
Muxing mode : Packed bitstream
Codec ID : DX50
Codec ID/Hint : DivX 5
Duration : 51mn 3s
Bit rate : 1 849 Kbps
Width : 720 pixels
Height : 400 pixels
Display aspect ratio : 16:9
Frame rate : 25.000 fps
Color space : YUV
Chroma subsampling : 4:2:0
Bit depth : 8 bits
Scan type : Progressive
Bits/(Pixel*Frame) : 0.257
Stream size : 675 MiB (90%)
Writing library : DivX 6.8.5 (UTC 2009-08-20)
Audio
ID : 1
Format : AC-3
Format/Info : Audio Coding 3
Mode extension : CM (complete main)
Codec ID : 2000
Duration : 51mn 3s
Bit rate mode : Constant
Bit rate : 192 Kbps
Channel(s) : 2 channels
Channel positions : Front: L R
Sampling rate : 48.0 KHz
Bit depth : 16 bits
Stream size : 70.1 MiB (9%)
Alignment : Aligned on interleaves
Interleave, duration : 40 ms (1.00 video frame)
Interleave, preload duration : 512 ms
[teatrix.ru].t16637.torrent 
Торрент: Зарегистрирован [ 2016-03-16 12:43 ] · CFF6C2F3F14D276DFFF63ACBA84EEDB6B3B8EE8C

Скачать .torrent

Скачать

16 KB

Статус: проверено
Скачан: 0 раз
Размер: 2.93 GB
terms.php



Показать сообщения:    

Текущее время: 06-Дек 15:15

Часовой пояс: UTC + 3


Вы не можете начинать темы
Вы не можете отвечать на сообщения
Вы не можете редактировать свои сообщения
Вы не можете удалять свои сообщения
Вы не можете голосовать в опросах
Вы не можете прикреплять файлы к сообщениям
Вы можете скачивать файлы