Кумиры. Назад в СССР (Елена Лапенкова) / Серии: 1-2 из 2 [2012, Документальный, IPTVRip]


Статистика раздачи [Обновить пиров]
Размер:  996 MB   |    Зарегистрирован:  8 месяцев 24 дня   |    Скачан:  0 раз

Полного источника не было: Никогда

Личеров:  6  [  0 KB/s  ]   Подробная статистика пиров
 
   
 
 
 

[Цитировать]

Кумиры. Назад в СССР-Год выпуска: 2012
Страна: Россия
Жанр: Документальный
Продолжительность: 00:38:59
Перевод: Не требуется-Режиссер: Елена Лапенкова-Описание: Сегодня многие испытывают ностальгию по советским временам. Наша память стирает все плохое. Мы уже все реже вспоминаем о временах железного занавеса, цензуры, колбасных электричек и продуктовых талонов. И все чаще грустим о той стране, где, как нам теперь кажется, были порядок, стабильность и дружба народов…
Участники: Карел Готт - певец, Артемий Троицкий - музыкальный критик, Сергей Архипов - заместитель гендиректора ВГТРК, Александр Васильев - историк моды, Тынис Мяги - певец, Микаэла Роуз - солистка группы "Арабески", Вольфганг Хайхель - участник группы "Чингисхан"-Качество: IPTVRip
Формат: AVI
Видео кодек: XviD
Аудио кодек: MP3
Видео: 672x384 (1.75:1), 25 fps, XviD MPEG-4 ~1655 kbps avg
Аудио: 48 kHz, MPEG Layer 3, 2 ch, ~128.00 kbps avg
Релиз: alexandro17

Содержание

Начало 80-х годов. Времена запретов и череды похорон кремлёвских старцев. Почти вся западная музыка – вне закона. Но иногда, каким-то чудом, к нам попадали крохи далёкой и яркой жизни… Каким же огромным, сочным и желанным был для нас запретный плод! За пластинку, привезённую из-за границы, мы могли отдать месячную зарплату…
Сегодня каждый может увидеть и услышать концерт самой знаменитой поп-звезды, купить музыкальный диск любого исполнителя, посмотреть любимый видеоклип. А в 80-е годы прошлого столетия для советских меломанов единственной отдушиной была телепрограмма "Мелодии и ритмы зарубежной эстрады". Западные группы, певцы и певицы в немыслимых нарядах, с невиданными прическами и макияжем казались советской молодёжи пришельцами с другой планеты…
На Западе популярность музыкальных групп 80-х давно сошла на нет. А у нас старым кумирам по-прежнему рады. Ведь для нас это - встреча с молодостью. Где они сейчас, девушки из группы "Арабески"? О чем "Чингисхан" пели тогда и о чём поёт сейчас? Как в страну развитого социализма прорвалась группа "Бони М"? Где живут сегодня музыканты группы "Апельсин", которую называли советскими "Дайер Стрейтс"?

MI

Общее
Полное имя : D:\Kumiry.Nazad.v.SSSR.IPTVRip\Kumiry.Nazad.v.SSSR.01.IPTVRip.avi
Формат : AVI
Формат/Информация : Audio Video Interleave
Размер файла : 500 Мбайт
Продолжительность : 38 м.
Общий поток : 1794 Кбит/сек
Программа кодирования : VirtualDubMod 1.5.10.2 (build 2540/release)
Библиотека кодирования : VirtualDub build 29808/release
Видео
Идентификатор : 0
Формат : MPEG-4 Visual
Профиль формата : Advanced Simple@L5
Параметр BVOP формата : 2
Параметр QPel формата : Нет
Параметр GMC формата : Без точки перехода
Параметр матрицы формата : Default (H.263)
Режим смешивания : Сжатый битовый поток
Идентификатор кодека : XVID
Идентификатор кодека/Подсказка : XviD
Продолжительность : 38 м.
Битрейт : 1656 Кбит/сек
Ширина : 672 пикселя
Высота : 384 пикселя
Соотношение сторон : 16:9
Частота кадров : 25,000 кадров/сек
Цветовое пространство : YUV
Субдискретизация насыщенности : 4:2:0
Битовая глубина : 8 бит
Тип развёртки : Прогрессивная
Метод сжатия : С потерями
Бит/(Пиксели*Кадры) : 0.257
Размер потока : 462 Мбайт (92%)
Библиотека кодирования : XviD 64
Аудио
Идентификатор : 1
Формат : MPEG Audio
Версия формата : Version 1
Профиль формата : Layer 3
Режим : Joint stereo
Идентификатор кодека : 55
Идентификатор кодека/Подсказка : MP3
Продолжительность : 38 м.
Вид битрейта : Постоянный
Битрейт : 128 Кбит/сек
Каналы : 2 канала
Частота : 48,0 КГц
Метод сжатия : С потерями
Размер потока : 35,7 Мбайт (7%)
Выравнивание : Соединение по промежуткам
Продолжительность промежутка : 40 мс. (1,00 видеокадр)
Время предзагрузки промежутка : 504 мс.
Библиотека кодирования : LAME3.90.3ЄЄЄЄЄЄ"@ћ1
Общее
Полное имя : D:\Kumiry.Nazad.v.SSSR.IPTVRip\Kumiry.Nazad.v.SSSR.02.IPTVRip.avi
Формат : AVI
Формат/Информация : Audio Video Interleave
Размер файла : 496 Мбайт
Продолжительность : 38 м.
Общий поток : 1795 Кбит/сек
Программа кодирования : VirtualDubMod 1.5.10.2 (build 2540/release)
Библиотека кодирования : VirtualDub build 29808/release
Видео
Идентификатор : 0
Формат : MPEG-4 Visual
Профиль формата : Advanced Simple@L5
Параметр BVOP формата : 2
Параметр QPel формата : Нет
Параметр GMC формата : Без точки перехода
Параметр матрицы формата : Default (H.263)
Режим смешивания : Сжатый битовый поток
Идентификатор кодека : XVID
Идентификатор кодека/Подсказка : XviD
Продолжительность : 38 м.
Битрейт : 1657 Кбит/сек
Ширина : 672 пикселя
Высота : 384 пикселя
Соотношение сторон : 16:9
Частота кадров : 25,000 кадров/сек
Цветовое пространство : YUV
Субдискретизация насыщенности : 4:2:0
Битовая глубина : 8 бит
Тип развёртки : Прогрессивная
Метод сжатия : С потерями
Бит/(Пиксели*Кадры) : 0.257
Размер потока : 458 Мбайт (92%)
Библиотека кодирования : XviD 64
Аудио
Идентификатор : 1
Формат : MPEG Audio
Версия формата : Version 1
Профиль формата : Layer 3
Режим : Joint stereo
Идентификатор кодека : 55
Идентификатор кодека/Подсказка : MP3
Продолжительность : 38 м.
Вид битрейта : Постоянный
Битрейт : 128 Кбит/сек
Каналы : 2 канала
Частота : 48,0 КГц
Метод сжатия : С потерями
Размер потока : 35,4 Мбайт (7%)
Выравнивание : Соединение по промежуткам
Продолжительность промежутка : 40 мс. (1,00 видеокадр)
Время предзагрузки промежутка : 504 мс.

Скриншоты

[teatrix.ru].t16638.torrent 
Торрент: Зарегистрирован [ 2016-03-16 12:43 ] · 295EDF1B5EB852207DE151FC1F9F68B737A5ED17

Скачать .torrent

Скачать

20 KB

Статус: проверено
Скачан: 0 раз
Размер: 996 MB
terms.php



Быстрый ответ

Имя:

      
Для отправки сообщений необходимо включить JavaScript
Показать сообщения:    

Текущее время: 09-Дек 16:31

Часовой пояс: UTC + 3


Вы можете начинать темы
Вы можете отвечать на сообщения
Вы не можете редактировать свои сообщения
Вы не можете удалять свои сообщения
Вы не можете голосовать в опросах
Вы не можете прикреплять файлы к сообщениям
Вы можете скачивать файлы