(Classical Crossover, Ethnic, Experimental) Hughes De Courson (Hughues De Courson, Hugues De Courson) - Lambarena, Bach to Africa - 1993/2009, FLAC (tracks+.cue) lossless


 

[Цитировать]

Hughes De Courson / Lambarena, Bach to Africa
Жанр: Classical Crossover, Ethnic, Experimental
Страна-производитель диска: USA
Год издания диска: 1993/2009
Издатель (лейбл): EMI Records Ltd./Virgin Classics
Номер по каталогу: 50999 2 34864 2 3
Страна: France
Аудиокодек: FLAC
Тип рипа: tracks+.cue
Битрейт аудио: lossless
Продолжительность: 48:36
Источник: скачано с
сайт-источник/ник/другое: isohunt.com (Torrent downloaded from Demonoid.com)
Наличие сканов в содержимом раздачи: нет
Треклист:
1. Cantate 147 (0:13)
2. Sankanda (traditionnel arr. P Akendengué) (5:07)
3. Mayingo (traditionnel arr. P. Akendengue): Fugue sur Mayingo (T. Gubitsch) (2:12)
4. Herr, Unser Herrscher (4:39)
5. Mabo Maboe (traditionnel arr. P. Akendengué (3:38)
6. Bombé/Ruht Wohl Ihr Heiligen Gebeine (3:48)
7. Pepa Nzac Gnon Ma (traditionnel arr. P. Akendengué) (4:23)
8. Mamoudo Na Sakka Baya Boudouma Ngombi (traditionnel arr (4:28)
9. Agnus Dei (Messe en si BWV 232 - arr. P. Akendengué) (5:06)
10. Ikokou (traditionnel arr. P. Akendengué) (2:11)
11. Inongo (traditionnel arr. P. Akendengué et H. de Courson) (5:40)
12. Okoukoué (traditionnel arr (1:54)
13. Was Mir Behagt, Ist Nur Die Muntre Jagd (3:03)
14. Cantate 147 'Jesus que ma joie demeure (2:14)

Лог создания рипа

Exact Audio Copy V0.99 prebeta 4 from 23. January 2008
EAC extraction logfile from 2. July 2009, 20:50
Hugues De Courson / Lambarena, Bach to Africa
Used drive : HL-DT-STDVDRAM GSA-T20N Adapter: 1 ID: 0
Read mode : Secure
Utilize accurate stream : Yes
Defeat audio cache : Yes
Make use of C2 pointers : No
Read offset correction : 667
Overread into Lead-In and Lead-Out : No
Fill up missing offset samples with silence : Yes
Delete leading and trailing silent blocks : No
Null samples used in CRC calculations : Yes
Used interface : Installed external ASPI interface
Gap handling : Appended to previous track
Used output format : User Defined Encoder
Selected bitrate : 768 kBit/s
Quality : High
Add ID3 tag : No
Command line compressor : C:\Program Files\FLAC\flac.exe
Additional command line options : -8 -V -T "artist=%a" -T "title=%t" -T "album=%g" -T "date=%y" -T "tracknumber=%n" -T "genre=%m" %s
TOC of the extracted CD
Track | Start | Length | Start sector | End sector
---------------------------------------------------------
1 | 0:00.00 | 0:13.15 | 0 | 989
2 | 0:13.15 | 5:07.67 | 990 | 24081
3 | 5:21.07 | 2:12.05 | 24082 | 33986
4 | 7:33.12 | 4:39.45 | 33987 | 54956
5 | 12:12.57 | 3:38.43 | 54957 | 71349
6 | 15:51.25 | 3:48.05 | 71350 | 88454
7 | 19:39.30 | 4:23.60 | 88455 | 108239
8 | 24:03.15 | 4:28.42 | 108240 | 128381
9 | 28:31.57 | 5:06.43 | 128382 | 151374
10 | 33:38.25 | 2:11.55 | 151375 | 161254
11 | 35:50.05 | 5:40.37 | 161255 | 186791
12 | 41:30.42 | 1:54.58 | 186792 | 195399
13 | 43:25.25 | 3:03.10 | 195400 | 209134
14 | 46:28.35 | 2:14.17 | 209135 | 219201
Track 1
Filename C:\ista\Hugues De Courson\Lambarena, Bach to Africa\01 - Cantate 147.wav
Pre-gap length 0:00:02.00
Peak level 9.1 %
Track quality 100.0 %
Test CRC E52718BE
Copy CRC E52718BE
Cannot be verified as accurate (confidence 11) [F090D48A], AccurateRip returned [ABF857A9]
Copy OK
Track 2
Filename C:\ista\Hugues De Courson\Lambarena, Bach to Africa\02 - Sankanda (traditionnel arr. P Akendenguй).wav
Peak level 99.2 %
Track quality 100.0 %
Test CRC BCB5D8E4
Copy CRC BCB5D8E4
Cannot be verified as accurate (confidence 11) [85BF260E], AccurateRip returned [5B20DD4A]
Copy OK
Track 3
Filename C:\ista\Hugues De Courson\Lambarena, Bach to Africa\03 - Mayingo (traditionnel arr. P. Akendengue)- Fugue sur Mayingo (T. Gubitsch).wav
Peak level 90.4 %
Track quality 100.0 %
Test CRC 536CAF5D
Copy CRC 536CAF5D
Cannot be verified as accurate (confidence 11) [8CFAD247], AccurateRip returned [29244397]
Copy OK
Track 4
Filename C:\ista\Hugues De Courson\Lambarena, Bach to Africa\04 - Herr, Unser Herrscher.wav
Peak level 99.2 %
Track quality 99.9 %
Test CRC 031CCCE2
Copy CRC 031CCCE2
Cannot be verified as accurate (confidence 10) [770FCDCA], AccurateRip returned [92C6CEA8]
Copy OK
Track 5
Filename C:\ista\Hugues De Courson\Lambarena, Bach to Africa\05 - Mabo Maboe (traditionnel arr. P. Akendenguй.wav
Peak level 99.1 %
Track quality 100.0 %
Test CRC 6347614B
Copy CRC 6347614B
Cannot be verified as accurate (confidence 10) [8CC56C06], AccurateRip returned [1483550C]
Copy OK
Track 6
Filename C:\ista\Hugues De Courson\Lambarena, Bach to Africa\06 - Bombй,Ruht Wohl Ihr Heiligen Gebeine.wav
Peak level 82.2 %
Track quality 100.0 %
Test CRC D1819392
Copy CRC D1819392
Cannot be verified as accurate (confidence 11) [2B1BD327], AccurateRip returned [F298E03C]
Copy OK
Track 7
Filename C:\ista\Hugues De Courson\Lambarena, Bach to Africa\07 - Pepa Nzac Gnon Ma (traditionnel arr. P. Akendenguй).wav
Peak level 90.1 %
Track quality 100.0 %
Test CRC 3C5180DB
Copy CRC 3C5180DB
Cannot be verified as accurate (confidence 11) [1218B7CA], AccurateRip returned [92CED302]
Copy OK
Track 8
Filename C:\ista\Hugues De Courson\Lambarena, Bach to Africa\08 - Mamoudo Na Sakka Baya Boudouma Ngombi (traditionnel arr.wav
Peak level 92.6 %
Track quality 100.0 %
Test CRC 1E3440BB
Copy CRC 1E3440BB
Cannot be verified as accurate (confidence 11) [DFEBC93E], AccurateRip returned [989CFD46]
Copy OK
Track 9
Filename C:\ista\Hugues De Courson\Lambarena, Bach to Africa\09 - Agnus Dei (Messe en si BWV 232 - arr. P. Akendenguй).wav
Peak level 59.9 %
Track quality 100.0 %
Test CRC 4667E1A0
Copy CRC 4667E1A0
Cannot be verified as accurate (confidence 11) [7158D2E4], AccurateRip returned [3EDDB9E1]
Copy OK
Track 10
Filename C:\ista\Hugues De Courson\Lambarena, Bach to Africa\10 - Ikokou (traditionnel arr. P. Akendenguй).wav
Peak level 99.1 %
Track quality 100.0 %
Test CRC 14B5CB24
Copy CRC 14B5CB24
Cannot be verified as accurate (confidence 11) [8DAA3FA8], AccurateRip returned [9E69B17E]
Copy OK
Track 11
Filename C:\ista\Hugues De Courson\Lambarena, Bach to Africa\11 - Inongo (traditionnel arr. P. Akendenguй et H. de Courson).wav
Peak level 75.3 %
Track quality 100.0 %
Test CRC 9239D505
Copy CRC 9239D505
Cannot be verified as accurate (confidence 11) [009938AE], AccurateRip returned [38C1B53E]
Copy OK
Track 12
Filename C:\ista\Hugues De Courson\Lambarena, Bach to Africa\12 - Okoukouй (traditionnel arr.wav
Peak level 99.2 %
Track quality 100.0 %
Test CRC 94D4D93D
Copy CRC 94D4D93D
Cannot be verified as accurate (confidence 11) [8F4737A2], AccurateRip returned [E18FB0AA]
Copy OK
Track 13
Filename C:\ista\Hugues De Courson\Lambarena, Bach to Africa\13 - Was Mir Behagt, Ist Nur Die Muntre Jagd.wav
Peak level 94.2 %
Track quality 100.0 %
Test CRC 215278C2
Copy CRC 215278C2
Cannot be verified as accurate (confidence 11) [1546A220], AccurateRip returned [337AC8A6]
Copy OK
Track 14
Filename C:\ista\Hugues De Courson\Lambarena, Bach to Africa\14 - Cantate 147 'Jesus que ma joie demeure.wav
Peak level 94.6 %
Track quality 100.0 %
Test CRC 784B9B98
Copy CRC 784B9B98
Cannot be verified as accurate (confidence 11) [97134AB0], AccurateRip returned [EB06133D]
Copy OK
No tracks could be verified as accurate
You may have a different pressing from the one(s) in the database
No errors occurred
End of status report

Содержание индексной карты (.CUE)

REM GENRE Classical
REM DATE 2009
REM DISCID A20B6A0E
REM COMMENT "ExactAudioCopy v0.99pb4"
PERFORMER "Hugues De Courson"
TITLE "Lambarena, Bach to Africa"
FILE "Hugues De Courson\Lambarena, Bach to Africa\01 - Cantate 147.wav" WAVE
TRACK 01 AUDIO
TITLE "Cantate 147"
PERFORMER "Hugues De Courson"
FLAGS DCP
INDEX 01 00:00:00
FILE "Hugues De Courson\Lambarena, Bach to Africa\02 - Sankanda (traditionnel arr. P Akendenguй).wav" WAVE
TRACK 02 AUDIO
TITLE "Sankanda (traditionnel arr. P Akendenguй)"
PERFORMER "Hugues De Courson"
FLAGS DCP
INDEX 01 00:00:00
FILE "Hugues De Courson\Lambarena, Bach to Africa\03 - Mayingo (traditionnel arr. P. Akendengue)- Fugue sur Mayingo (T. Gubitsch).wav" WAVE
TRACK 03 AUDIO
TITLE "Mayingo (traditionnel arr. P. Akendengue): Fugue sur Mayingo (T. Gubitsch)"
PERFORMER "Hugues De Courson"
FLAGS DCP
INDEX 01 00:00:00
FILE "Hugues De Courson\Lambarena, Bach to Africa\04 - Herr, Unser Herrscher.wav" WAVE
TRACK 04 AUDIO
TITLE "Herr, Unser Herrscher"
PERFORMER "Hugues De Courson"
FLAGS DCP
INDEX 01 00:00:00
FILE "Hugues De Courson\Lambarena, Bach to Africa\05 - Mabo Maboe (traditionnel arr. P. Akendenguй.wav" WAVE
TRACK 05 AUDIO
TITLE "Mabo Maboe (traditionnel arr. P. Akendenguй"
PERFORMER "Hugues De Courson"
FLAGS DCP
INDEX 01 00:00:00
FILE "Hugues De Courson\Lambarena, Bach to Africa\06 - Bombй,Ruht Wohl Ihr Heiligen Gebeine.wav" WAVE
TRACK 06 AUDIO
TITLE "Bombй/Ruht Wohl Ihr Heiligen Gebeine "
PERFORMER "Hugues De Courson"
FLAGS DCP
INDEX 01 00:00:00
FILE "Hugues De Courson\Lambarena, Bach to Africa\07 - Pepa Nzac Gnon Ma (traditionnel arr. P. Akendenguй).wav" WAVE
TRACK 07 AUDIO
TITLE "Pepa Nzac Gnon Ma (traditionnel arr. P. Akendenguй)"
PERFORMER "Hugues De Courson"
FLAGS DCP
INDEX 01 00:00:00
FILE "Hugues De Courson\Lambarena, Bach to Africa\08 - Mamoudo Na Sakka Baya Boudouma Ngombi (traditionnel arr.wav" WAVE
TRACK 08 AUDIO
TITLE "Mamoudo Na Sakka Baya Boudouma Ngombi (traditionnel arr"
PERFORMER "Hugues De Courson"
FLAGS DCP
INDEX 01 00:00:00
FILE "Hugues De Courson\Lambarena, Bach to Africa\09 - Agnus Dei (Messe en si BWV 232 - arr. P. Akendenguй).wav" WAVE
TRACK 09 AUDIO
TITLE "Agnus Dei (Messe en si BWV 232 - arr. P. Akendenguй)"
PERFORMER "Hugues De Courson"
FLAGS DCP
INDEX 01 00:00:00
FILE "Hugues De Courson\Lambarena, Bach to Africa\10 - Ikokou (traditionnel arr. P. Akendenguй).wav" WAVE
TRACK 10 AUDIO
TITLE "Ikokou (traditionnel arr. P. Akendenguй)"
PERFORMER "Hugues De Courson"
FLAGS DCP
INDEX 01 00:00:00
FILE "Hugues De Courson\Lambarena, Bach to Africa\11 - Inongo (traditionnel arr. P. Akendenguй et H. de Courson).wav" WAVE
TRACK 11 AUDIO
TITLE "Inongo (traditionnel arr. P. Akendenguй et H. de Courson)"
PERFORMER "Hugues De Courson"
FLAGS DCP
INDEX 01 00:00:00
FILE "Hugues De Courson\Lambarena, Bach to Africa\12 - Okoukouй (traditionnel arr.wav" WAVE
TRACK 12 AUDIO
TITLE "Okoukouй (traditionnel arr"
PERFORMER "Hugues De Courson"
FLAGS DCP
INDEX 01 00:00:00
FILE "Hugues De Courson\Lambarena, Bach to Africa\13 - Was Mir Behagt, Ist Nur Die Muntre Jagd.wav" WAVE
TRACK 13 AUDIO
TITLE "Was Mir Behagt, Ist Nur Die Muntre Jagd "
PERFORMER "Hugues De Courson"
FLAGS DCP
INDEX 01 00:00:00
FILE "Hugues De Courson\Lambarena, Bach to Africa\14 - Cantate 147 'Jesus que ma joie demeure.wav" WAVE
TRACK 14 AUDIO
TITLE "Cantate 147 'Jesus que ma joie demeure"
PERFORMER "Hugues De Courson"
FLAGS DCP
INDEX 01 00:00:00
Доп. информация: http://www.lastfm.ru/music/Hughes+de+Courson

Об исполнителе (группе)

http://fr.wikipedia.org/wiki/Hughes_de_Courson

Об альбоме (сборнике)




Показать сообщения:    

Текущее время: 07-Дек 21:17

Часовой пояс: UTC + 3


Вы не можете начинать темы
Вы не можете отвечать на сообщения
Вы не можете редактировать свои сообщения
Вы не можете удалять свои сообщения
Вы не можете голосовать в опросах
Вы не можете прикреплять файлы к сообщениям
Вы не можете скачивать файлы