Карпов. Пятницкий. Послесловие [2012, Документальный, SATRip]


Статистика раздачи [Обновить пиров]
Размер:  558 MB   |    Зарегистрирован:  8 месяцев 21 день   |    Скачан:  0 раз

Полного источника не было: Никогда

Личеров:  96  [  0 KB/s  ]   Подробная статистика пиров
 
   
 
 
 

[Цитировать]

Карпов. Пятницкий. Послесловие
Год выпуска: 2012
Страна: Россия
Жанр: Документальный
Продолжительность: 00:43:02
Перевод: Не требуется
Текст читал: Алексей Соколов
Описание: Оборвавшийся на самой драматической ноте "Карпов" и последовавшая за ним вторая глава "Пятницкого" вызвали у российских телезрителей огромный интерес. И раз уж сюжетные линии этих сериалов, посвященных самым популярным персонажам легендарного "Глухаря", пересекаются, - на НТВ решили представить поклонникам этой "сериальной вселенной" документальное послесловие сразу к обоим завершившимся сезонам - первому "Карпова" и второму "Пятницкого". В эфире НТВ - "фильм о фильме", точнее, сразу о двух фильмах. Обычно материалы такого рода выпускаются на коллекционных изданиях видео. В "Послесловии" преданные фанаты Стаса Карпова и команды ОВД "Пятницкий" впервые смогут увидеть: пробы на главные роли, неудавшиеся дубли и актерские розыгрыши на съемочной площадке. Посмотреть на своих любимых героев в непривычных амплуа, например, в театре и дома. Узнать, как были поставлены сложные трюки, перестрелки и взрывы, как работают каскадеры, дублеры и гримеры.
А самое главное, в "Послесловии" впервые будут раскрыты подробности продолжений "Карпова" и "Пятницкого", которые выйдут в эфир уже в следующем году.
Качество: SATRip
Формат: AVI
Видео кодек: XviD
Аудио кодек: MP3
Видео: XviD, 704x400, 25 fps, 1643 kbit/s
Аудио: MPEG Layer 3, 48000 Hz, 128 kbit/s, stereo
Раздача группы:
Релиз: ANDROZZZ

MI

Общее
Полное имя : E:\Downloads\55\Karpov.Pyatnetskiy.Posleslovie.(2012).XviD.SATRip.avi
Формат : AVI
Формат/Информация : Audio Video Interleave
Размер файла : 558 Мбайт
Продолжительность : 43 м.
Общий поток : 1781 Кбит/сек
Библиотека кодирования : VirtualDub build 24442/release
Видео
Идентификатор : 0
Формат : MPEG-4 Visual
Профиль формата : Advanced Simple@L5
Параметр BVOP формата : 2
Параметр QPel формата : Нет
Параметр GMC формата : Без точки перехода
Параметр матрицы формата : Default (H.263)
Режим смешивания : Сжатый битовый поток
Идентификатор кодека : XVID
Идентификатор кодека/Подсказка : XviD
Продолжительность : 43 м.
Битрейт : 1643 Кбит/сек
Ширина : 704 пикс.
Высота : 400 пикс.
Соотношение сторон : 16:9
Частота кадров : 25,000 кадр/сек
Цветовое пространство : YUV
Подвыборка цветности : 4:2:0
Битовая глубина : 8 бит
Тип развёртки : Прогрессивная
Метод сжатия : С потерями
Бит/(Пиксели*Кадры) : 0.233
Размер потока : 515 Мбайт (92%)
Библиотека кодирования : XviD 64
Аудио
Идентификатор : 1
Формат : MPEG Audio
Версия формата : Version 1
Профиль формата : Layer 3
Режим : Joint stereo
Расширение режима : MS Stereo
Идентификатор кодека : 55
Идентификатор кодека/Подсказка : MP3
Продолжительность : 43 м.
Вид битрейта : Постоянный
Битрейт : 128 Кбит/сек
Каналы : 2 канала
Частота : 48,0 КГц
Метод сжатия : С потерями
Задержка видео : 8 мс.
Размер потока : 40,1 Мбайт (7%)
Выравнивание : Разделение по промежуткам
Продолжительность промежутка : 40 мс. (1,00 видеокадр)
Время предзагрузки промежутка : 500 ms

Скриншоты

[teatrix.ru].t16648.torrent 
Торрент: Зарегистрирован [ 2016-03-16 12:43 ] · 161038A2AE64875210C21D23205851F9D9627BC3

Скачать .torrent

Скачать

11 KB

Статус: проверено
Скачан: 0 раз
Размер: 558 MB
terms.php



Показать сообщения:    

Текущее время: 07-Дек 00:50

Часовой пояс: UTC + 3


Вы не можете начинать темы
Вы не можете отвечать на сообщения
Вы не можете редактировать свои сообщения
Вы не можете удалять свои сообщения
Вы не можете голосовать в опросах
Вы не можете прикреплять файлы к сообщениям
Вы можете скачивать файлы