Тайны советского кино. Усатый нянь (Максим Володин) [2012, Документальный цикл, познавательный, DVB]


Статистика раздачи [Обновить пиров]
Размер:  676 MB   |    Зарегистрирован:  8 месяцев 17 дней   |    Скачан:  0 раз

Полного источника не было: Никогда

Личеров:  98  [  0 KB/s  ]   Подробная статистика пиров
 
   
 
 
 

[Цитировать]

Тайны советского кино. Усатый нянь-Год выпуска: 2012
Страна: Россия
Жанр: Документальный цикл, познавательный
Продолжительность: 00:25:59
Перевод: Не требуется
Русские субтитры: нет
Режиссер: Максим Володин
Описание: «Это будет провал!» – так говорили коллеги и друзья начинающему режиссёру Владимиру Грамматикову перед съемками «Усатого няня». Но фильм вышел на экраны в 1978 году и стал народным хитом. Как снималась любимая комедия и как сейчас живут её герои – в программе «Тайны нашего кино. Усатый нянь».
Через кастинг для фильма прошли тысячи детей в возрасте от четырех до восьми лет. Любопытно, что сначала на роль воспитанников детского сада № 21 хотели набрать только близнецов! Почему? А правда ли, что сам Сергей Проханов собирается снимать продолжение «Няня»? Кто сыграет нового Кешу? И какую роль картине прочат Миле Йовович? Об этом телезрители узнают, посмотрев выпуск программы «Тайны нашего кино. Усатый нянь».-Качество: DVB
Формат: MPEG-PS
Видео кодек: MPEG2
Аудио кодек: MP2
Видео: MPEG 2, 704 x 576, 25 fps, 3 400 kbps, 0.33 bit/pixel
Аудио: MPEG Audio (Version 1) (Layer 2), 2 Ch, 48 kHz, 192 kbps

MI

General
Complete name : C:Тайны советского кино. Усатый нянь_2012_DVB_by_dean10.mpg
Format : MPEG-PS
File size : 676 MiB
Duration : 25mn 59s
Overall bit rate mode : Variable
Overall bit rate : 3 638 Kbps
Video
ID : 224 (0xE0)
Format : MPEG Video
Format version : Version 2
Format profile : Main@Main
Format settings, BVOP : Yes
Format settings, Matrix : Custom
Format settings, GOP : M=1, N=23
Duration : 25mn 59s
Bit rate mode : Variable
Bit rate : 3 400 Kbps
Width : 720 pixels
Height : 576 pixels
Display aspect ratio : 4:3
Frame rate : 25.000 fps
Standard : PAL
Color space : YUV
Chroma subsampling : 4:2:0
Bit depth : 8 bits
Scan type : Interlaced
Scan order : Top Field First
Compression mode : Lossy
Bits/(Pixel*Frame) : 0.328
Stream size : 627 MiB (93%)
Audio
ID : 192 (0xC0)
Format : MPEG Audio
Format version : Version 1
Format profile : Layer 2
Duration : 25mn 59s
Bit rate mode : Constant
Bit rate : 192 Kbps
Channel(s) : 2 channels
Sampling rate : 48.0 KHz
Compression mode : Lossy
Stream size : 35.7 MiB (5%)

Скриншоты

[teatrix.ru].t16649.torrent 
Торрент: Зарегистрирован [ 2016-03-16 12:43 ] · 2B27CC3B1E5A603D3C61CC272F89E25A39DED38F

Скачать .torrent

Скачать

14 KB

Статус: проверено
Скачан: 0 раз
Размер: 676 MB
terms.php



Показать сообщения:    

Текущее время: 03-Дек 09:51

Часовой пояс: UTC + 3


Вы не можете начинать темы
Вы не можете отвечать на сообщения
Вы не можете редактировать свои сообщения
Вы не можете удалять свои сообщения
Вы не можете голосовать в опросах
Вы не можете прикреплять файлы к сообщениям
Вы можете скачивать файлы