Карпов. Пятницкий. Послесловие [2012, Документальный, DVB]


Статистика раздачи [Обновить пиров]
Размер:  1.66 GB   |    Зарегистрирован:  8 месяцев 18 дней   |    Скачан:  0 раз

Полного источника не было: Никогда

Личеров:  4  [  0 KB/s  ]   Подробная статистика пиров
 
   
 
 
 

[Цитировать]

Карпов. Пятницкий. Послесловие
Год выпуска: 2012
Страна: Россия
Жанр: Документальный
Продолжительность: 00:43:55
Перевод: Не требуется
Описание: Оборвавшийся на самой драматической ноте "Карпов" и последовавшая за ним вторая глава "Пятницкого" вызвали у российских телезрителей огромный интерес. И раз уж сюжетные линии этих сериалов, посвященных самым популярным персонажам легендарного "Глухаря", пересекаются, - на НТВ решили представить поклонникам этой "сериальной вселенной" документальное послесловие сразу к обоим завершившимся сезонам - первому "Карпова" и второму "Пятницкого". В эфире НТВ - "фильм о фильме", точнее, сразу о двух фильмах. Обычно материалы такого рода выпускаются на коллекционных изданиях видео. В "Послесловии" преданные фанаты Стаса Карпова и команды ОВД "Пятницкий" впервые смогут увидеть: пробы на главные роли, неудавшиеся дубли и актерские розыгрыши на съемочной площадке. Посмотреть на своих любимых героев в непривычных амплуа, например, в театре и дома. Узнать, как были поставлены сложные трюки, перестрелки и взрывы, как работают каскадеры, дублеры и гримеры.
А самое главное, в "Послесловии" впервые будут раскрыты подробности продолжений "Карпова" и "Пятницкого", которые выйдут в эфир уже в следующем году.
Качество видео: DVB
Формат видео: MPEG-PS
Видео кодек: MPEG2
Аудио кодек: MPEG1 Layer 2
Видео: MPEG2 Video, 720x576 (4:3), 25 fps, 5125 Kbps, 0.494 bit/pixel
Аудио: MPEG Audio, 48000 Hz, 2 channels, 192 Кбит/сек

Скриншоты

Скринлист

MediaInfo

General
Complete name : E:\Карпов. Пятницкий. Послесловие.mpg
Format : MPEG-PS
File size : 1.66 GiB
Duration : 43mn 55s
Overall bit rate mode : Variable
Overall bit rate : 5 425 Kbps
Video
ID : 224 (0xE0)
Format : MPEG Video
Format version : Version 2
Format profile : Main@Main
Format settings, BVOP : Yes
Format settings, Matrix : Custom
Format settings, GOP : M=1, N=23
Duration : 43mn 55s
Bit rate mode : Variable
Bit rate : 5 125 Kbps
Maximum bit rate : 15.0 Mbps
Width : 720 pixels
Height : 576 pixels
Display aspect ratio : 4:3
Frame rate : 25.000 fps
Standard : PAL
Color space : YUV
Chroma subsampling : 4:2:0
Bit depth : 8 bits
Scan type : Interlaced
Scan order : Top Field First
Compression mode : Lossy
Bits/(Pixel*Frame) : 0.494
Stream size : 1.57 GiB (94%)
Audio
ID : 192 (0xC0)
Format : MPEG Audio
Format version : Version 1
Format profile : Layer 2
Duration : 43mn 55s
Bit rate mode : Constant
Bit rate : 192 Kbps
Channel(s) : 2 channels
Sampling rate : 48.0 KHz
Compression mode : Lossy
Stream size : 60.3 MiB (4%)
[teatrix.ru].t16650.torrent 
Торрент: Зарегистрирован [ 2016-03-16 12:47 ] · 519EC3CBDF78AD295DC96C8CF753474A79A43C95

Скачать .torrent

Скачать

17 KB

Статус: проверено
Скачан: 0 раз
Размер: 1.66 GB
terms.php



Показать сообщения:    

Текущее время: 04-Дек 06:56

Часовой пояс: UTC + 3


Вы не можете начинать темы
Вы не можете отвечать на сообщения
Вы не можете редактировать свои сообщения
Вы не можете удалять свои сообщения
Вы не можете голосовать в опросах
Вы не можете прикреплять файлы к сообщениям
Вы можете скачивать файлы