Только одна картина. А. Серов "Девочка с персиками" [2000, Документальный цикл, познавательный, DVB]


Статистика раздачи [Обновить пиров]
Размер:  60 MB   |    Зарегистрирован:  8 месяцев 18 дней   |    Скачан:  0 раз

Полного источника не было: Никогда

Личеров:  88  [  0 KB/s  ]   Подробная статистика пиров
 
   
 
 
 

[Цитировать]

Только одна картина. А. Серов "Девочка с персиками"
Год выпуска: 2000
Страна: Россия, Студия "Перспектива"
Жанр: Документальный цикл, познавательный
Продолжительность: 00:02:17
Перевод: Не требуется
Русские субтитры: нет
Описание:
Рассказы о произведениях классиков русской живописи - К. Брюллова, В. Васнецова, И. Репина, В. Сурикова и других.
В этом выпуске картина А. Серова "Девочка с персиками"
Качество: DVB
Формат: MPEG-PS
Видео кодек: MPEG2
Аудио кодек: MP2
Видео: MPEG-2 Video, 720x576 (4:3), VBR, 25 fps, 3 400 Kbps, 0.33 bit/pixel
Аудио: Russian: 48 kHz, MPEG Audio, 2 ch, 192 kbps

MI

General
Complete name : C:\Только одна картина. А. Серов_Девочка с персиками_DVB_by_dean10.mpg
Format : MPEG-PS
File size : 59.6 MiB
Duration : 2mn 17s
Overall bit rate mode : Variable
Overall bit rate : 3 641 Kbps
Video
ID : 224 (0xE0)
Format : MPEG Video
Format version : Version 2
Format profile : Main@Main
Format settings, BVOP : Yes
Format settings, Matrix : Custom17
Format settings, GOP : M=1, N=26
Duration : 2mn 17s
Bit rate mode : Variable
Bit rate : 3 400 Kbps
Width : 720 pixels
Height : 576 pixels
Display aspect ratio : 4:3
Frame rate : 25.000 fps
Standard : PAL
Color space : YUV
Chroma subsampling : 4:2:0
Bit depth : 8 bits
Scan type : Interlaced
Scan order : Top Field First
Compression mode : Lossy
Bits/(Pixel*Frame) : 0.328
Stream size : 55.3 MiB (93%)
Audio
ID : 192 (0xC0)
Format : MPEG Audio
Format version : Version 1
Format profile : Layer 2
Duration : 2mn 17s
Bit rate mode : Constant
Bit rate : 192 Kbps
Channel(s) : 2 channels
Sampling rate : 48.0 KHz
Compression mode : Lossy
Stream size : 3.14 MiB (5%)

Скриншоты

[teatrix.ru].t16657.torrent 
Торрент: Зарегистрирован [ 2016-03-16 12:43 ] · 418F3A7C27FE2CB7D9B642C046AD493EE11D5980

Скачать .torrent

Скачать

19 KB

Статус: проверено
Скачан: 0 раз
Размер: 60 MB
terms.php



Быстрый ответ

Имя:

      
Для отправки сообщений необходимо включить JavaScript
Показать сообщения:    

Текущее время: 04-Дек 11:10

Часовой пояс: UTC + 3


Вы можете начинать темы
Вы можете отвечать на сообщения
Вы не можете редактировать свои сообщения
Вы не можете удалять свои сообщения
Вы не можете голосовать в опросах
Вы не можете прикреплять файлы к сообщениям
Вы можете скачивать файлы