Севдалинки / Sevdah [2009, документальный / Viasat History, SATRip-AVC]


Статистика раздачи [Обновить пиров]
Размер:  675 MB   |    Зарегистрирован:  8 месяцев 24 дня   |    Скачан:  1 раз

Полного источника не было: 1 месяц 7 дней

 
   
 
 
 

[Цитировать]

Севдалинки / Sevdah
Год выпуска: 2009
Страна: Хорватия
Жанр: документальный / Viasat History
Продолжительность: 01:06:03
Перевод: Профессиональный (одноголосый)
Русские субтитры: нет
Описание: Севдах - это чувство с оттенком меланхолии, душевных страданий и любовных переживаний. В Боснии это чувство передается в традиционных грустных любовных песнях - севдалинках. После смерти общей подруги и почитательницы этого песенного жанра Фары, музыкант Дамира и режиссер Марина, пытаясь справиться с потерей, решили снять фильм о севдалинках. В результате перед нами - эмоциональное и лирическое музыкальное путешествие в глубины сербской души, проникнутое личными переживаниями и эмоциями.
Качество: SATRip
Формат: MKV
Видео кодек: H.264
Аудио кодек: AC3
Видео: MPEG4 Video (H264) 720x400 25fps 1 300 Kbps
Аудио: Dolby AC3 48000Hz stereo 128 Kbps

MediaInfo

Format : Matroska
Format version : Version 2
File size : 675 MiB
Duration : 1h 6mn
Overall bit rate : 1 429 Kbps
Encoded date : UTC 2012-11-07 16:16:15
Writing application : mkvmerge v5.8.0 ('No Sleep / Pillow') built on Sep 2 2012 15:37:04
Writing library : libebml v1.2.3 + libmatroska v1.3.0
Video
ID : 1
Format : AVC
Format/Info : Advanced Video Codec
Format profile : High@L4.1
Format settings, CABAC : Yes
Format settings, ReFrames : 8 frames
Codec ID : V_MPEG4/ISO/AVC
Duration : 1h 6mn
Bit rate : 1 300 Kbps
Width : 720 pixels
Height : 400 pixels
Display aspect ratio : 16:9
Frame rate mode : Constant
Frame rate : 25.000 fps
Color space : YUV
Chroma subsampling : 4:2:0
Bit depth : 8 bits
Scan type : Progressive
Bits/(Pixel*Frame) : 0.181
Stream size : 601 MiB (89%)
Writing library : x264 core 125 r2208 d9d2288
Encoding settings : cabac=1 / ref=8 / deblock=1:-1:-1 / analyse=0x3:0x133 / me=umh / subme=9 / psy=1 / psy_rd=1.00:0.10 / mixed_ref=1 / me_range=16 / chroma_me=1 / trellis=2 / 8x8dct=1 / cqm=0 / deadzone=21,11 / fast_pskip=1 / chroma_qp_offset=-3 / threads=12 / lookahead_threads=2 / sliced_threads=0 / nr=0 / decimate=1 / interlaced=0 / bluray_compat=0 / constrained_intra=0 / bframes=3 / b_pyramid=2 / b_adapt=2 / b_bias=0 / direct=3 / weightb=1 / open_gop=0 / weightp=2 / keyint=250 / keyint_min=25 / scenecut=40 / intra_refresh=0 / rc_lookahead=60 / rc=2pass / mbtree=1 / bitrate=1300 / ratetol=1.0 / qcomp=0.60 / qpmin=0 / qpmax=69 / qpstep=4 / cplxblur=20.0 / qblur=0.5 / vbv_maxrate=50000 / vbv_bufsize=50000 / nal_hrd=none / ip_ratio=1.40 / aq=1:1.00
Default : Yes
Forced : No
Audio
ID : 2
Format : AC-3
Format/Info : Audio Coding 3
Mode extension : CM (complete main)
Format settings, Endianness : Big
Codec ID : A_AC3
Duration : 1h 6mn
Bit rate mode : Constant
Bit rate : 128 Kbps
Channel(s) : 2 channels
Channel positions : Front: L R
Sampling rate : 48.0 KHz
Bit depth : 16 bits
Compression mode : Lossy
Stream size : 60.5 MiB (9%)
Default : Yes
Forced : No

Скриншоты и скринлист

[teatrix.ru].t16671.torrent 
Торрент: Зарегистрирован [ 2016-03-16 12:46 ] · DB7A54AE997D6B97059D1E3C41EEEAE2D0B11E62

Скачать .torrent

Скачать

14 KB

Статус: проверено
Скачан: 1 раз
Размер: 675 MB
terms.php



Быстрый ответ

Имя:

      
Для отправки сообщений необходимо включить JavaScript
Показать сообщения:    

Текущее время: 09-Дек 22:21

Часовой пояс: UTC + 3


Вы можете начинать темы
Вы можете отвечать на сообщения
Вы не можете редактировать свои сообщения
Вы не можете удалять свои сообщения
Вы не можете голосовать в опросах
Вы не можете прикреплять файлы к сообщениям
Вы можете скачивать файлы