Лучано Паваротти / Legenden. Luciano Pavarotti [2010, Документальный, SATRip]


Статистика раздачи [Обновить пиров]
Размер:  807 MB   |    Зарегистрирован:  10 месяцев 3 дня   |    Скачан:  0 раз

Полного источника не было: Никогда

Личеров:  3  [  0 KB/s  ]   Подробная статистика пиров
 
   
 
 
 

[Цитировать]

Лучано Паваротти / Legenden. Luciano Pavarotti
Год выпуска: 2010
Страна: Германия
Жанр: Документальный
Продолжительность: 00:58:09
Перевод: Профессиональный (одноголосый)
Описание: Лучано Паваротти является одним из самых знаменитых оперных певцов современности. Его голос часто сравнивали с голосом Энрико Карузо, перед которым Паваротти преклонялся и которому посвятил песню, ставшую мировым хитом. За последнее время ни один другой тенор не имел столь огромного успеха, ярко-выраженного стиля, всеобщего поклонения и скандальных заголовков в прессе. Передача рассказывает о жизни оперного певца, ставшего легендой при жизни. Мы узнаем о его скромном происхождении и стремительном взлете карьеры, преклонении публики, его любовных историях, упорной борьбе с избыточным весом, болезненном разводе с женой после 35 лет совместной жизни, о повторном браке с юной секретаршей, и, наконец, трагической смерти. Друзья Лучано Паваротти, члены его семьи и поклонники рассказывают о жизни маэстро.
Качество: SATRip
Формат: MP4
Видео кодек: H.264
Аудио кодек: AAC
Видео: H.264, 1750 Кбит/сек, 704x400, 25fps
Аудио: AAC, 2 ch, 48,0 КГц, 192 Кбит/сек
Сэмпл

MI

Complete name : Лучано Паваротти.mp4
Format : MPEG-4
Format profile : Base Media / Version 2
Codec ID : mp42
File size : 807 MiB
Duration : 58mn 9s
Overall bit rate mode : Variable
Overall bit rate : 1 940 Kbps
Encoded date : UTC 2012-11-18 12:54:46
Tagged date : UTC 2012-11-18 13:13:43
Writing application : HandBrake 0.9.8 2012071700
Video
ID : 1
Format : AVC
Format/Info : Advanced Video Codec
Format profile : Main@L3.0
Format settings, CABAC : Yes
Format settings, ReFrames : 4 frames
Codec ID : avc1
Codec ID/Info : Advanced Video Coding
Duration : 58mn 9s
Bit rate mode : Variable
Bit rate : 1 750 Kbps
Width : 704 pixels
Height : 400 pixels
Display aspect ratio : 16:9
Frame rate mode : Constant
Frame rate : 25.000 fps
Color space : YUV
Chroma subsampling : 4:2:0
Bit depth : 8 bits
Scan type : Progressive
Bits/(Pixel*Frame) : 0.249
Stream size : 725 MiB (90%)
Writing library : x264 core 120
Encoding settings : cabac=1 / ref=1 / deblock=1:0:0 / analyse=0x1:0x111 / me=hex / subme=2 / psy=1 / psy_rd=1.00:0.00 / mixed_ref=0 / me_range=16 / chroma_me=1 / trellis=0 / 8x8dct=0 / cqm=0 / deadzone=21,11 / fast_pskip=1 / chroma_qp_offset=0 / threads=6 / sliced_threads=0 / nr=0 / decimate=1 / interlaced=0 / bluray_compat=0 / constrained_intra=0 / bframes=3 / b_pyramid=2 / b_adapt=1 / b_bias=0 / direct=1 / weightb=1 / open_gop=0 / weightp=1 / keyint=250 / keyint_min=25 / scenecut=40 / intra_refresh=0 / rc_lookahead=10 / rc=abr / mbtree=1 / bitrate=1750 / ratetol=1.0 / qcomp=0.60 / qpmin=3 / qpmax=69 / qpstep=4 / ip_ratio=1.40 / aq=1:1.00
Encoded date : UTC 2012-11-18 12:54:46
Tagged date : UTC 2012-11-18 13:13:43
Color primaries : BT.601 NTSC
Transfer characteristics : BT.709
Matrix coefficients : BT.601
Audio
ID : 2
Format : AAC
Format/Info : Advanced Audio Codec
Format profile : LC
Codec ID : 40
Duration : 58mn 9s
Bit rate mode : Variable
Bit rate : 192 Kbps
Maximum bit rate : 317 Kbps
Channel(s) : 2 channels
Channel positions : Front: L R
Sampling rate : 48.0 KHz
Compression mode : Lossy
Delay relative to video : 80ms
Stream size : 79.9 MiB (10%)
Language : Russian
Encoded date : UTC 2012-11-18 12:54:46
Tagged date : UTC 2012-11-18 13:13:43

Скриншоты



[teatrix.ru].t16678.torrent 
Торрент: Зарегистрирован [ 2016-03-16 12:48 ] · 333E9D5FAE507530B1AA7648B01884B8F72950D4

Скачать .torrent

Скачать

16 KB

Статус: проверено
Скачан: 0 раз
Размер: 807 MB
terms.php



Быстрый ответ

Имя:

      
Для отправки сообщений необходимо включить JavaScript
Показать сообщения:    

Текущее время: 19-Янв 16:05

Часовой пояс: UTC + 3


Вы можете начинать темы
Вы можете отвечать на сообщения
Вы не можете редактировать свои сообщения
Вы не можете удалять свои сообщения
Вы не можете голосовать в опросах
Вы не можете прикреплять файлы к сообщениям
Вы можете скачивать файлы