"Один день Ивана Денисовича". 50 лет спустя... (Алексей Денисов) [2012, Документальный, DVB]


Статистика раздачи [Обновить пиров]
Размер:  537 MB   |    Зарегистрирован:  8 месяцев 18 дней   |    Скачан:  0 раз

Полного источника не было: Никогда

Личеров:  3  [  0 KB/s  ]   Подробная статистика пиров
 
   
 
 
 

[Цитировать]

"Один день Ивана Денисовича". 50 лет спустя...
Год выпуска: 2012
Производство: Студия «Град»
Жанр: Документальный
Продолжительность: 00:41:59
Перевод: Не требуется
Русские субтитры: нет
Автор и режиссер: Алексей Денисов
Описание: В ноябре 1962 года в журнале "Новый мир" была опубликована повесть, тогда еще никому не известного автора, работавшего учителем в рязанской школе, которая называлась "Один день Ивана Денисовича". В ней описывался один день заключенного ГУЛАГа, деревенского мужика Ивана Денисовича Шухова. Так в русской литературе впервые зазвучал голос Александра Исаевича Солженицына.
Еще до выхода "Нового мира" литературная Москва была взбудоражена слухами о новом явлении в русской литературе. 17 ноября 1962 года журнал пошел по подписчикам, а на следующий день появился в продаже. Стотысячный тираж был раскуплен практически мгновенно, в библиотеках читатели записывались в очередь на Солженицына.
После того как "Один день Ивана Денисовича" был переведен на все основные языки мира, он стал не меньшим потрясением для зарубежных читателей.
Качество: DVB
Формат: MPG
Видео кодек: MPEG2
Аудио кодек: MP2
Видео: MPEG2 Video 720x576 (4:3) 25.00fps Bit rate 1561Kbps Bits/(Pixel*Frame) 0.151
Аудио: MPEG Audio 48000Hz stereo 192kbps

Скриншоты

MI

Complete name : F:\torrent\Один день Ивана Денисовича.50 лет спустя.mpg
Format : MPEG-PS
File size : 537 MiB
Duration : 41mn 59s
Overall bit rate : 1 789 Kbps
Writing library : (c) 1998-2012 Womble Multimedia, Inc. / MPEG Video Wizard DVD 5.0.1.100 (03/2011) / Sep 7 2012
Video
ID : 224 (0xE0)
Format : MPEG Video
Format version : Version 2
Format profile : Main@Main
Format settings, BVOP : Yes
Format settings, Matrix : Custom
Format settings, GOP : M=3, N=14
Duration : 41mn 59s
Bit rate mode : Variable
Bit rate : 1 561 Kbps
Maximum bit rate : 15.0 Mbps
Width : 720 pixels
Height : 576 pixels
Display aspect ratio : 4:3
Frame rate : 25.000 fps
Standard : PAL
Color space : YUV
Chroma subsampling : 4:2:0
Bit depth : 8 bits
Scan type : Interlaced
Scan order : Top Field First
Compression mode : Lossy
Bits/(Pixel*Frame) : 0.151
Stream size : 469 MiB (87%)
Writing library : (c) 1998-2012 Womble Multimedia, Inc. / MPEG Video Wizard DVD 5.0.1.100 (03/2011) / Sep 7 2012
Audio
ID : 192 (0xC0)
Format : MPEG Audio
Format version : Version 1
Format profile : Layer 2
Duration : 41mn 59s
Bit rate mode : Constant
Bit rate : 192 Kbps
Channel(s) : 2 channels
Sampling rate : 48.0 KHz
Compression mode : Lossy
Stream size : 57.7 MiB (11%)
[teatrix.ru].t16682.torrent 
Торрент: Зарегистрирован [ 2016-03-16 12:48 ] · 446F04AAA8D49AAA4F813862BACF51DA465DC2DB

Скачать .torrent

Скачать

11 KB

Статус: проверено
Скачан: 0 раз
Размер: 537 MB
terms.php



Быстрый ответ

Имя:

      
Для отправки сообщений необходимо включить JavaScript
Показать сообщения:    

Текущее время: 04-Дек 09:09

Часовой пояс: UTC + 3


Вы можете начинать темы
Вы можете отвечать на сообщения
Вы не можете редактировать свои сообщения
Вы не можете удалять свои сообщения
Вы не можете голосовать в опросах
Вы не можете прикреплять файлы к сообщениям
Вы можете скачивать файлы