Джордж Элиот. Скандальная жизнь / BBC - George Eliot: A Scandalous Life (Мэри Даунс / Mary Downes) [2002, документально – инсценированный, биография, DVB] DVO (Техномедия)


Статистика раздачи [Обновить пиров]
Размер:  1.15 GB   |    Зарегистрирован:  8 месяцев 19 дней   |    Скачан:  0 раз

Полного источника не было: Никогда

Личеров:  100  [  0 KB/s  ]   Подробная статистика пиров
 
   
 
 
 

[Цитировать]

Джордж Элиот. Скандальная жизнь
BBC - George Eliot: A Scandalous Life- Год выпуска: 2002
Страна: Великобритания
Жанр: документально – инсценированный, биография
Продолжительность: 00:58:32
Перевод: Профессиональный (двухголосый) (компания ООО "Техномедия" по заказу телеканала "Кто есть кто")
Русские субтитры: нет
Режиссер: Мэри Даунс / Mary Downes
В ролях: Хэрриет Уолтер / Harriet Walter (Mary Ann Evans / George Eliot), Джон Сешнс / John Sessions (George Henry Lewes), Джеймс Уилби / James Wilby (Herbert Spencer), Дэвид Уоллиямс / David Walliams (John Chapman), Ричард Диллейн / Richard Dillane (John Cross)
Описание: Фильм о жизни прекрасной английской писательницы XIX века Мэри Энн Эванс, взявшей псевдоним Джордж Элиот (1819–1880). Отвергнутая викторианским обществом, она сумела добиться успеха и стала культовой фигурой, несмотря на все сплетни и скандалы. Автор романов "Адам Бид" (1859), "Мельница на Флоссе" (1860), "Сайлес Марнер" (1861), "Ромола" (1863), "Феликс Холт, радикал" (1866), "Миддлмарч" (1871—1872), "Дэниэль Деронда" (1876).
Всесторонне образованная женщина, прекрасно знавшая философию, математику, естествознание, переводившая немецкого теолога Д. Ф. Штрауса, Фейербаха, Спинозу, она была превосходной музыкантшей и познакомила английскую читательскую публику с переводами статей Листа о Мейербере. Элиот была хорошо знакома с Гербертом Спенсером; с философом-позитивистом Генри Льюисом она состояла в гражданском браке, в течение многих лет навлекая на себя гнев и родственников, и представителей так называемого высшего света, не принимавшего ее в своих кругах. Воспитанная в строгой вере, она впоследствии (в начале 40-х годов) отказывается посещать церковь и все чаще задумывается над нравственным смыслом религии.
Элиот — самая образованная английская романистка XIX века, и в этом отношении превосходит и Диккенса, и Теккерея. Художественные достоинства её произведений могут быть оспорены, зато могучий аналитический ум Элиот не вызывает сомнений.
Доп. информация: Собственная запись со спутника (канал "Кто есть кто", пакет НТВ+).
Информация: http://www.imdb.com/title/tt0482647/
Качество: DVB
Формат: MPG
Видео кодек: MPEG2
Аудио кодек: MP2
Видео: MPEG Video 2, 704x576@768x576 (4:3), 25 fps, ~2568 kbps avg
Аудио: 48 kHz, MPEG Audio 2, 2 ch, ~192.00 kbps avg

MediaInfo

Полное имя                               : H:\My Torrents\[apreder]George_Eliot_A_Scandalous_Life(2002)DVB.mpg
Формат : MPEG-PS
Размер файла : 1,15 Гбайт
Продолжительность : 58 м.
Режим общего битрейта : Переменный
Общий поток : 2816 Кбит/сек
Видео
Идентификатор : 224 (0xE0)
Формат : MPEG Video
Версия формата : Version 2
Профиль формата : Main@Main
Параметр BVOP формата : Да
Параметр матрицы формата : Выборочная
Параметр GOP формата : M=3, N=24
Продолжительность : 58 м.
Вид битрейта : Переменный
Битрейт : 2568 Кбит/сек
Ширина : 704 пикселя
Высота : 576 пикселей
Соотношение сторон : 4:3
Частота кадров : 25,000 кадров/сек
Стандарт вещания : PAL
Цветовое пространство : YUV
Субдискретизация насыщенности : 4:2:0
Битовая глубина : 8 бит
Тип развёртки : Прогрессивная
Порядок развёртки : Верхнее поле первое
Метод сжатия : С потерями
Бит/(Пиксели*Кадры) : 0.253
Размер потока : 1,05 Гбайт (91%)
Аудио
Идентификатор : 192 (0xC0)
Формат : MPEG Audio
Версия формата : Version 1
Профиль формата : Layer 2
Продолжительность : 58 м.
Вид битрейта : Постоянный
Битрейт : 192 Кбит/сек
Каналы : 2 канала
Частота : 48,0 КГц
Метод сжатия : С потерями
Размер потока : 80,4 Мбайт (7%)

Скриншоты


Скриншоты анаморфированные


-472/454√
[teatrix.ru].t16685.torrent 
Торрент: Зарегистрирован [ 2016-03-16 12:42 ] · 78A55EFEA3462D03FAB1CEAFC26140DFC0AB029C

Скачать .torrent

Скачать

12 KB

Статус: проверено
Скачан: 0 раз
Размер: 1.15 GB
terms.php



Быстрый ответ

Имя:

      
Для отправки сообщений необходимо включить JavaScript
Показать сообщения:    

Текущее время: 04-Дек 13:16

Часовой пояс: UTC + 3


Вы можете начинать темы
Вы можете отвечать на сообщения
Вы не можете редактировать свои сообщения
Вы не можете удалять свои сообщения
Вы не можете голосовать в опросах
Вы не можете прикреплять файлы к сообщениям
Вы можете скачивать файлы