(Classical Crossover) Placido Domingo - Songs (With Josh Groban, Harry Connick Jr. Zaz, Katherine Jenkins, Chris Botti, Susan Boyle, Megan Hilty) - 2012, FLAC (image+.cue), lossless


 

[Цитировать]

-Plácido Domingo - Songs- Год выпуска диска : 16 октября 2012
Производитель диска : EU (вроде)
Аудио кодек : FLAC
Тип рипа : image+.cue (Test & Copy)
Битрейт аудио : lossless
Продолжительность : 53:27
Лейбл : Sony Classical
Каталожный номер : 0886919349320
Источник (релизер): Рип оригинального диска из личной коллекции
Сканы: прилагаются


01. Canción para una reina
02. Sous le ciel de Paris - duet with Josh Groban
03. Time After Time - duet with Harry Connick, Jr
04. Un uomo tra la folla
05. La chanson des vieux amants - duet with Zaz
06. Come What May - duet with Katherine Jenkins
07. Bésame mucho - featuring Chris Botti
08. From This Moment On - duet with Susan Boyle
09. Parla più piano
10. Il mio cuore va - My Heart Will Go On - duet with Megan Hilty
11. Eternally
12. Celos
13. The Girl from Ipanema
14. What a Wonderful World - duet with Plácido Domingo, Jr.
EUGENE KOHN, дирижер

издание - What a Wonderful World - в дуэте с Francesco Renga
издание - What a Wonderful World - в дуэте с Xavier Naidoo
издание - Perhaps Love - в дуэте с Plácido Domingo Jr. (бонус-трек)-Дополнительная информация: Новый поп-альбом Пласидо, включает дуэты со многими своими друзьями - артистами, "коллегами по цеху".-

Лог создания рипа

Exact Audio Copy V1.0 beta 3 from 29. August 2011
EAC extraction logfile from 21. November 2012, 20:41
Placido Domingo / Songs (0886919349320)
Used drive : TSSTcorpCDDVDW TS-L633C Adapter: 2 ID: 0
Read mode : Secure
Utilize accurate stream : Yes
Defeat audio cache : Yes
Make use of C2 pointers : No
Read offset correction : 6
Overread into Lead-In and Lead-Out : No
Fill up missing offset samples with silence : Yes
Delete leading and trailing silent blocks : No
Null samples used in CRC calculations : Yes
Used interface : Native Win32 interface for Win NT & 2000
Used output format : Internal WAV Routines
Sample format : 44.100 Hz; 16 Bit; Stereo
TOC of the extracted CD
Track | Start | Length | Start sector | End sector
---------------------------------------------------------
1 | 0:00.00 | 3:43.31 | 0 | 16755
2 | 3:43.31 | 3:39.17 | 16756 | 33197
3 | 7:22.48 | 2:49.11 | 33198 | 45883
4 | 10:11.59 | 2:38.63 | 45884 | 57796
5 | 12:50.47 | 4:41.63 | 57797 | 78934
6 | 17:32.35 | 4:35.49 | 78935 | 99608
7 | 22:08.09 | 3:44.03 | 99609 | 116411
8 | 25:52.12 | 4:46.12 | 116412 | 137873
9 | 30:38.24 | 3:44.14 | 137874 | 154687
10 | 34:22.38 | 4:41.00 | 154688 | 175762
11 | 39:03.38 | 3:20.25 | 175763 | 190787
12 | 42:23.63 | 3:44.04 | 190788 | 207591
13 | 46:07.67 | 3:21.56 | 207592 | 222722
14 | 49:29.48 | 3:57.46 | 222723 | 240543
Range status and errors
Selected range
Filename C:\Users\user\Desktop\Placido Domingo - Songs (0886919349320).wav
Peak level 100.0 %
Extraction speed 4.1 X
Range quality 100.0 %
Test CRC 3B750E2E
Copy CRC 3B750E2E
Copy OK
No errors occurred
AccurateRip summary
Track 1 not present in database
Track 2 not present in database
Track 3 not present in database
Track 4 not present in database
Track 5 not present in database
Track 6 not present in database
Track 7 not present in database
Track 8 not present in database
Track 9 not present in database
Track 10 not present in database
Track 11 not present in database
Track 12 not present in database
Track 13 not present in database
Track 14 not present in database
None of the tracks are present in the AccurateRip database
End of status report

Содержание индексной карты (.CUE)

REM GENRE Vocal
REM DATE 2012
REM DISCID B30C870E
REM COMMENT ExactAudioCopy v1.0b3
PERFORMER "Plácido Domingo"
TITLE "Songs (0886919349320)"
FILE "Placido Domingo - Songs (0886919349320).flac" WAVE
TRACK 01 AUDIO
TITLE "Canción para una reina"
INDEX 01 00:00:00
TRACK 02 AUDIO
TITLE "Sous le ciel de Paris (Duet With Josh Groban)"
INDEX 00 03:42:39
INDEX 01 03:43:31
TRACK 03 AUDIO
TITLE "Time After Time (Duet With Harry Connick Jr.)"
INDEX 00 07:21:56
INDEX 01 07:22:48
TRACK 04 AUDIO
TITLE "Un uomo tra la folla"
INDEX 00 10:10:67
INDEX 01 10:11:59
TRACK 05 AUDIO
TITLE "La chanson des vieux amants (Duet With Zaz)"
INDEX 00 12:49:55
INDEX 01 12:50:47
TRACK 06 AUDIO
TITLE "Come What May (Duet With Katherine Jenkins)"
INDEX 00 17:31:35
INDEX 01 17:32:35
TRACK 07 AUDIO
TITLE "Bésame mucho (Featuring Chris Botti)"
INDEX 00 22:07:09
INDEX 01 22:08:09
TRACK 08 AUDIO
TITLE "From This Moment On (Duet With Susan Boyle)"
INDEX 00 25:51:12
INDEX 01 25:52:12
TRACK 09 AUDIO
TITLE "Parla più piano"
INDEX 00 30:37:24
INDEX 01 30:38:24
TRACK 10 AUDIO
TITLE "Il mio cuore va - My Heart Will Go On (Duet With Megan Hilty)"
INDEX 00 34:21:46
INDEX 01 34:22:38
TRACK 11 AUDIO
TITLE "Eternally"
INDEX 00 39:02:46
INDEX 01 39:03:38
TRACK 12 AUDIO
TITLE "Celos (Jalousie)"
INDEX 00 42:22:70
INDEX 01 42:23:63
TRACK 13 AUDIO
TITLE "The Girl from Ipanema"
INDEX 00 46:06:74
INDEX 01 46:07:67
TRACK 14 AUDIO
TITLE "What a Wonderful World (Duet With Plácido Domingo Jr.)"
INDEX 00 49:28:56
INDEX 01 49:29:48

Скриншот спектра частот




Показать сообщения:    

Текущее время: 10-Дек 23:32

Часовой пояс: UTC + 3


Вы не можете начинать темы
Вы не можете отвечать на сообщения
Вы не можете редактировать свои сообщения
Вы не можете удалять свои сообщения
Вы не можете голосовать в опросах
Вы не можете прикреплять файлы к сообщениям
Вы не можете скачивать файлы