Мадонна: Женщина - бренд / Madonna: The woman behind the brand (Жан-Франсуа Фирей) [2011, документальный / 24 DOC, SATRip-AVC]


Статистика раздачи [Обновить пиров]
Размер:  597 MB   |    Зарегистрирован:  8 месяцев 25 дней   |    Скачан:  0 раз

Полного источника не было: Никогда

Личеров:  9  [  0 KB/s  ]   Подробная статистика пиров
 
   
 
 
 

[Цитировать]

Мадонна: Женщина - бренд / Madonna: The woman behind the brand
Год выпуска: 2011
Страна: Франция
Жанр: документальный / 24 DOC
Продолжительность: 00:58:24
Перевод: Профессиональный (одноголосый)
Русские субтитры: нет
Режиссер: Жан-Франсуа Фирей
Описание: Она королева поп-музыки, постоянно меняющаяся, но неизменно остающаяся на вершине. Но что за женщина стоит за этим брендом? Что сделало её Мадонной, которую мы видим сейчас?
Мы проследим восхождение Мадонны от её ранней юности, жизни в Нью-Йорке, работы уборщицей, до раздоров с ее первыми агентами и конфликтов в семье. В фильме использованы уникальные архивные кадры и интервью с членами семьи и друзьями Мадонны.
Качество: SATRip
Формат: MKV
Видео кодек: H.264
Аудио кодек: AC3
Видео: MPEG4 Video (H264) 720x400 25fps 1 300 Kbps
Аудио: Dolby AC3 48000Hz stereo 128 Kbps

MediaInfo

Format : Matroska
Format version : Version 2
File size : 597 MiB
Duration : 58mn 23s
Overall bit rate : 1 430 Kbps
Encoded date : UTC 2012-11-20 07:20:16
Writing application : mkvmerge v5.8.0 ('No Sleep / Pillow') built on Sep 2 2012 15:37:04
Writing library : libebml v1.2.3 + libmatroska v1.3.0
Video
ID : 1
Format : AVC
Format/Info : Advanced Video Codec
Format profile : High@L4.1
Format settings, CABAC : Yes
Format settings, ReFrames : 8 frames
Codec ID : V_MPEG4/ISO/AVC
Duration : 58mn 23s
Bit rate : 1 300 Kbps
Width : 720 pixels
Height : 400 pixels
Display aspect ratio : 16:9
Frame rate mode : Constant
Frame rate : 25.000 fps
Color space : YUV
Chroma subsampling : 4:2:0
Bit depth : 8 bits
Scan type : Progressive
Bits/(Pixel*Frame) : 0.181
Stream size : 532 MiB (89%)
Writing library : x264 core 125 r2208 d9d2288
Encoding settings : cabac=1 / ref=8 / deblock=1:-1:-1 / analyse=0x3:0x133 / me=umh / subme=9 / psy=1 / psy_rd=1.00:0.10 / mixed_ref=1 / me_range=16 / chroma_me=1 / trellis=2 / 8x8dct=1 / cqm=0 / deadzone=21,11 / fast_pskip=1 / chroma_qp_offset=-3 / threads=12 / lookahead_threads=2 / sliced_threads=0 / nr=0 / decimate=1 / interlaced=0 / bluray_compat=0 / constrained_intra=0 / bframes=3 / b_pyramid=2 / b_adapt=2 / b_bias=0 / direct=3 / weightb=1 / open_gop=0 / weightp=2 / keyint=250 / keyint_min=25 / scenecut=40 / intra_refresh=0 / rc_lookahead=60 / rc=2pass / mbtree=1 / bitrate=1300 / ratetol=1.0 / qcomp=0.75 / qpmin=0 / qpmax=69 / qpstep=4 / cplxblur=20.0 / qblur=0.5 / vbv_maxrate=50000 / vbv_bufsize=50000 / nal_hrd=none / ip_ratio=1.40 / aq=1:1.00
Default : Yes
Forced : No
Audio
ID : 2
Format : AC-3
Format/Info : Audio Coding 3
Mode extension : CM (complete main)
Format settings, Endianness : Big
Codec ID : A_AC3
Duration : 58mn 23s
Bit rate mode : Constant
Bit rate : 128 Kbps
Channel(s) : 2 channels
Channel positions : Front: L R
Sampling rate : 48.0 KHz
Bit depth : 16 bits
Compression mode : Lossy
Stream size : 53.5 MiB (9%)
Default : Yes
Forced : No

Скриншоты и скринлист

[teatrix.ru].t16698.torrent 
Торрент: Зарегистрирован [ 2016-03-16 12:47 ] · D99E8765A78CC537F7A322A757D2070BDE81439E

Скачать .torrent

Скачать

12 KB

Статус: проверено
Скачан: 0 раз
Размер: 597 MB
terms.php



Быстрый ответ

Имя:

      
Для отправки сообщений необходимо включить JavaScript
Показать сообщения:    

Текущее время: 11-Дек 11:03

Часовой пояс: UTC + 3


Вы можете начинать темы
Вы можете отвечать на сообщения
Вы не можете редактировать свои сообщения
Вы не можете удалять свои сообщения
Вы не можете голосовать в опросах
Вы не можете прикреплять файлы к сообщениям
Вы можете скачивать файлы