Звезды голубого экрана. София Лорен / Stars of the Silver Sсreen (Emma Gregory) [2011, Документальный цикл, познавательный, DVB]


Статистика раздачи [Обновить пиров]
Размер:  1.11 GB   |    Зарегистрирован:  8 месяцев 22 дня   |    Скачан:  0 раз

Полного источника не было: Никогда

Личеров:  12  [  0 KB/s  ]   Подробная статистика пиров
 
   
 
 
 

[Цитировать]

Звезды голубого экрана. София Лорен / Stars of the Silver Sсreen
Год выпуска: 2011
Страна: Великобритания
Жанр: Документальный цикл, познавательный
Продолжительность: 00:43:21
Перевод: Профессиональный (одноголосый, закадровый)
Русские субтитры: нет
Режиссер: Emma Gregory
Описание: Быть голливудской звездой - значит воплощать в себе мечты миллионов и отдавать свою жизнь и судьбу в их руки. Этот документальный сериал посвящен тем, кто взлетел выше всех. Мы откроем для себя историю таких знаменитых актеров, как Марлон Брандо и Элизабет Тейлор, узнаем, что двигало ими и почему они стали так популярны во всем мире. Комментарии современных критиков и голливудской элиты той эпохи прольют свет на жизни и наследие легенд мирового кино, оживят в памяти самые волнительные кадры фильмов, в которых они сыграли, и раскроют характеры, скрывающиеся за известными именами.
В этом выпуске: София Лорен
Софи́ Лоре́н (Sophia Loren; настоящее имя — Софи́я Вилла́ни Шиколо́не, итал. Sofia Villani Scicolone; род. 20 сентября 1934, Рим) — итальянская актриса и певица. Обладательница почётных премий всех основных кинофестивалей — Каннского (1961), Венецианского (1958, 1998), Московского (1965, 1997), Берлинского (1994). Лауреат пяти премий «Золотой глобус» (в специальной номинации «любимица мировой публики»). Первая лауреатка премии «Оскар» за лучшую женскую роль в фильме на иностранном языке (1961). Обладатель почётного «Оскара» (1991) с формулировкой «за карьеру, богатую запоминающимися ролями, придавшими нетускнеющий блеск кинематографу».
Качество: DVB
Формат: MPEG-PS
Видео кодек: MPEG2
Аудио кодек: MP2
Видео: MPEG-2 Video, 720x576 (16:9), 25 fps, 3385 Kbps, 0.33 bit/pixel
Аудио: Russian: 48 kHz, MPEG Audio, 2 ch, 192 kbps

MI

General
Complete name : C:Звезды голубого экрана. София Лорен.mpg
Format : MPEG-PS
File size : 1.11 GiB
Duration : 43mn 21s
Overall bit rate mode : Variable
Overall bit rate : 3 649 Kbps
Video
ID : 224 (0xE0)
Format : MPEG Video
Format version : Version 2
Format profile : Main@Main
Format settings, BVOP : Yes
Format settings, Matrix : Custom
Duration : 43mn 21s
Bit rate mode : Variable
Bit rate : 3 385 Kbps
Maximum bit rate : 15.0 Mbps
Width : 720 pixels
Height : 576 pixels
Display aspect ratio : 16:9
Active Format Description : Full frame 16:9 image
Frame rate : 25.000 fps
Standard : PAL
Color space : YUV
Chroma subsampling : 4:2:0
Bit depth : 8 bits
Scan type : Interlaced
Scan order : Top Field First
Compression mode : Lossy
Bits/(Pixel*Frame) : 0.326
Stream size : 1.03 GiB (93%)
Audio
ID : 192 (0xC0)
Format : MPEG Audio
Format version : Version 1
Format profile : Layer 2
Duration : 43mn 21s
Bit rate mode : Constant
Bit rate : 192 Kbps
Channel(s) : 2 channels
Sampling rate : 48.0 KHz
Compression mode : Lossy
Stream size : 59.6 MiB (5%)

Скриншоты

[teatrix.ru].t16701.torrent 
Торрент: Зарегистрирован [ 2016-03-16 12:51 ] · 42CC52DE345CCFEA4504B456151DC7E58E4F5EE9

Скачать .torrent

Скачать

12 KB

Статус: проверено
Скачан: 0 раз
Размер: 1.11 GB
terms.php



Показать сообщения:    

Текущее время: 07-Дек 15:29

Часовой пояс: UTC + 3


Вы не можете начинать темы
Вы не можете отвечать на сообщения
Вы не можете редактировать свои сообщения
Вы не можете удалять свои сообщения
Вы не можете голосовать в опросах
Вы не можете прикреплять файлы к сообщениям
Вы можете скачивать файлы