Тайны советского кино - "Семь стариков и одна девушка" [2012, Документальный, SATRip]


Статистика раздачи [Обновить пиров]
Размер:  341 MB   |    Зарегистрирован:  10 месяцев 7 дней   |    Скачан:  0 раз
Сидов:  2  [  0 KB/s  ]   Личеров:  91  [  0 KB/s  ]   Подробная статистика пиров
 
   
 
 
 

[Цитировать]

Тайны советского кино - "Семь стариков и одна девушка"
Год выпуска: 2012
Страна: Россия
Жанр: Документальный
Продолжительность: 00:25:08
Перевод: Не требуется
Режиссер: Максим Володин
Ведущий: Иван Усачёв

Описание: Когда в 1969 году картина "Семь стариков и одна девушка" вышла на экраны, она не стала мегахитом – лидерство захватила "Бриллиантовая рука" Леонида Гайдая. Однако время всё расставило по местам: сейчас комедия Евгения Карелова любима не меньше, чем гайдаевский шедевр. О том, как снимали этот фильм и что интересного осталось за кадром – в программе "Тайны нашего кино". "Семь стариков и одна девушка".
По-разному сложились судьбы создателей фильма. Пожалуй, самая трагическая – у актрисы Светланы Савёловой, сыгравшей молодого тренера Лену Величко. Главная роль в комедии "Семь стариков и одна девушка" для Савёловой была спасательным кругом. После работы в первом её фильме "Прощайте, голуби!" молодой красавице-актрисе не предлагали ролей в кино. И Светлана надеялась, что роль Величко, в борьбе за которую она обогнала Наталью Селезнёву, Ольгу Остроумову и Людмилу Гладунко, принесет ей счастье, успех, новые работы... но она ошиблась.
Качество: SATRip
Формат: AVI
Видео кодек: XviD
Аудио кодек: MP3
Видео: 704x416 (1.69:1), 25 fps, XviD build 50 ~1701 kbps avg, 0.23 bit/pixel
Аудио: 48 kHz, MPEG Layer 3, 2 ch, ~128.00 kbps avg

MediaInfo

Общее
Полное имя : E:\Downloads\55\Тайны нашего кино. Семь стариков и одна девушка .(2012)_SATRip_by_Серый1779.avi
Формат : AVI
Формат/Информация : Audio Video Interleave
Размер файла : 341 Мбайт
Продолжительность : 25 м.
Общий поток : 1838 Кбит/сек
Программа кодирования : VirtualDubMod 1.5.10.3 | www.virtualdub-fr.org || (build 2550/release)
Библиотека кодирования : VirtualDubMod build 2550/release
Видео
Идентификатор : 0
Формат : MPEG-4 Visual
Профиль формата : Advanced Simple@L5
Параметр BVOP формата : 2
Параметр QPel формата : Нет
Параметр GMC формата : Без точки перехода
Параметр матрицы формата : Default (MPEG)
Идентификатор кодека : XVID
Идентификатор кодека/Подсказка : XviD
Продолжительность : 25 м.
Битрейт : 1701 Кбит/сек
Ширина : 704 пикс.
Высота : 416 пикс.
Соотношение сторон : 1,692
Частота кадров : 25,000 кадр/сек
Цветовое пространство : YUV
Подвыборка цветности : 4:2:0
Битовая глубина : 8 бит
Тип развёртки : Прогрессивная
Метод сжатия : С потерями
Бит/(Пиксели*Кадры) : 0.232
Размер потока : 315 Мбайт (93%)
Библиотека кодирования : XviD 1.2.1 (UTC 2008-12-04)
Аудио
Идентификатор : 1
Формат : MPEG Audio
Версия формата : Version 1
Профиль формата : Layer 3
Идентификатор кодека : 55
Идентификатор кодека/Подсказка : MP3
Продолжительность : 25 м.
Вид битрейта : Постоянный
Битрейт : 128 Кбит/сек
Каналы : 2 канала
Частота : 48,0 КГц
Метод сжатия : С потерями
Размер потока : 23,7 Мбайт (7%)
Выравнивание : Соединение по промежуткам
Продолжительность промежутка : 40 мс. (1,00 видеокадр)
Время предзагрузки промежутка : 504 ms
Библиотека кодирования : LAME3.98r
Настройки программы : -m s -V 4 -q 2 -lowpass 17 -b 128

Отдельное спасибо SLuMeP за предоставление исходника.

Скриншоты

[teatrix.ru].t16706.torrent 
Торрент: Зарегистрирован [ 2016-03-16 12:43 ] · 4E0649A79DC3930A95F915D84C16E857640D3ACD

Скачать .torrent

Скачать

14 KB

Статус: проверено
Скачан: 0 раз
Размер: 341 MB
terms.php



Показать сообщения:    

Текущее время: 24-Янв 12:13

Часовой пояс: UTC + 3


Вы не можете начинать темы
Вы не можете отвечать на сообщения
Вы не можете редактировать свои сообщения
Вы не можете удалять свои сообщения
Вы не можете голосовать в опросах
Вы не можете прикреплять файлы к сообщениям
Вы можете скачивать файлы