Ван Клиберн. Концертный пианист / Van Cliburn - Concert Pianist (Питер Розен / Peter Rosen) [1994, документальный, фильм-портрет, DVB] DVO (Видеопродакшн)


Статистика раздачи [Обновить пиров]
Размер:  1.02 GB   |    Зарегистрирован:  8 месяцев 19 дней   |    Скачан:  0 раз

Полного источника не было: Никогда

Личеров:  12  [  0 KB/s  ]   Подробная статистика пиров
 
   
 
 
 

[Цитировать]

Ван Клиберн. Концертный пианист
Van Cliburn: Concert Pianist- Год выпуска: 1994
Страна: США
Жанр: документальный, фильм-портрет
Продолжительность: 00:58:18
Перевод: Профессиональный (двухголосый) (компания "Видеопродакшн")
Русские субтитры: нет
Режиссер: Питер Розен / Peter Rosen
Описание: Ван Клиберн (1934-2013) - американский пианист, первый победитель Международного конкурса имени Чайковского (1958).
Первые уроки фортепианной игры получил в возрасте 3-х лет у своей матери, ученицы Артура Фридхайма. Когда Клиберну было шесть лет, семья переехала в Техас, где он в тринадцать лет выиграл конкурс, а вскоре дебютировал в Карнеги-холле. В 1951 году поступил в Джульярдскую школу, в класс Розины Левиной, и в ближайшие годы получил ряд наград на престижных американских и международных конкурсах — в частности, первое место на престижном Конкурсе имени Левентритта (1954). Мировую известность имя Клиберна получило после сенсационной победы на первом Международном конкурсе имени Чайковского в Москве в 1958 году. Молодой пианист завоевал симпатии как членов жюри, так и публики. Это было тем более удивительно, что действие происходило в разгар холодной войны. По возвращении на родину Клиберну был устроен пышный восторженный приём. Музыкант проникся любовью и уважением к СССР и после конкурса ещё неоднократно приезжал с концертами.
Доп. информация: запись со спутника (канал "Кто есть кто").
Качество: DVB
Формат: MPG
Видео кодек: MPEG2
Аудио кодек: MP2
Видео: MPEG Video 2, 704x576@768x576 (4:3), 25 fps, ~2273 kbps avg
Аудио: 48 kHz, MPEG Audio 2, 2 ch, ~192.00 kbps avg

MediaInfo

Полное имя                               : H:\My Torrents\[apreder]Van_Cliburn_Concert_Pianist(1994)DVB.mpg
Формат : MPEG-PS
Размер файла : 1,02 Гбайт
Продолжительность : 58 м.
Режим общего битрейта : Переменный
Общий поток : 2515 Кбит/сек
Видео
Идентификатор : 224 (0xE0)
Формат : MPEG Video
Версия формата : Version 2
Профиль формата : Main@Main
Параметр BVOP формата : Да
Параметр матрицы формата : Выборочная
Продолжительность : 58 м.
Вид битрейта : Переменный
Битрейт : 2273 Кбит/сек
Ширина : 704 пикселя
Высота : 576 пикселей
Соотношение сторон : 4:3
Частота кадров : 25,000 кадров/сек
Стандарт вещания : PAL
Цветовое пространство : YUV
Субдискретизация насыщенности : 4:2:0
Битовая глубина : 8 бит
Метод сжатия : С потерями
Бит/(Пиксели*Кадры) : 0.224
Размер потока : 948 Мбайт (90%)
Аудио
Идентификатор : 192 (0xC0)
Формат : MPEG Audio
Версия формата : Version 1
Профиль формата : Layer 2
Продолжительность : 58 м.
Вид битрейта : Постоянный
Битрейт : 192 Кбит/сек
Каналы : 2 канала
Частота : 48,0 КГц
Метод сжатия : С потерями
Размер потока : 80,1 Мбайт (8%)

Скриншоты


Скриншоты анаморфированные


-481/463√
[teatrix.ru].t16707.torrent 
Торрент: Зарегистрирован [ 2016-03-16 12:53 ] · 2FEFFF34E6D5E513EF02819360B4F1AB912FB7B6

Скачать .torrent

Скачать

11 KB

Статус: проверено
Скачан: 0 раз
Размер: 1.02 GB
terms.php



Быстрый ответ

Имя:

      
Для отправки сообщений необходимо включить JavaScript
Показать сообщения:    

Текущее время: 04-Дек 13:15

Часовой пояс: UTC + 3


Вы можете начинать темы
Вы можете отвечать на сообщения
Вы не можете редактировать свои сообщения
Вы не можете удалять свои сообщения
Вы не можете голосовать в опросах
Вы не можете прикреплять файлы к сообщениям
Вы можете скачивать файлы