(Easy Listening, Classical Crossover, Flute) Berdien Stenberg - Коллекция (5CD) (1980-1992), FLAC (image+.cue), lossless


 

[Цитировать]

-●★●Berdien Stenberg FLAC Коллекция ●★●- -Жанр: Easy Listening, Classical Crossover | Производитель диска: WG / Nederland | Лейбл: Philips/Dino Music
Годы издания: 1980-1992 | Аудио кодек: FLAC | Тип рипа: image+.cue | Битрейт аудио: lossless
Источник (релизер): Рипы оригинальных дисков из личной коллекции | Наличие сканов: 600dpi, PNG
-Бердин Стенберг - экстраординарная голландская флейтистка, прославившаяся в 80-х исполнением классики в современной обработке и исполнением просто красивых мелодий совместно с такими известными музыкантами, как Ричард Клайдерман и оркестром Джеймса Ласта.
Особенно стоит отметить её танцевальную версию классического произведения итальянского композитора Саверио Меркаданте Rondo Russo из Концерта в ми миноре для флейты и оркестра, которая в своё время возглавила национальны хит-парад Нидерландов. Ещё достаточно важной в творчестве Бердин является
композиция Berdinerie с одноимённого альбома, написанная специально для неё и достаточно часто включаемая в различные сборники и подборки произведений жанра easy listening.
За пределами же Голландии неплохой успех имели альбомы Flute Fiesta совместно с оркестром Джемса Ласта и особенно совместный с французским пианистом Ричардом Клайдерманом альбом инструментальных композиций Amour pour Amour французского композитора Поля де Сенневиля (Paul de Senneville) (в своё время прославившего на весь мир Р. Клайдермана хитом Ballade pour Adeline). В поддержку этих альбомов даже были выпущены музыкальные видеоролики на большинство композиций альбома.
-●★●АЛЬБОМЫ ●★●-

1980. SECRET GARDENS ●★● Philips 826 719-2 ●★● West Germany

Год выпуска диска : 1980/1985
Производитель диска : West Germany
Аудио кодек : FLAC
Тип рипа : image+.cue (Test & Copy)
Битрейт аудио : lossless
Продолжительность : 41:07
Лейбл : Philips
Каталожный номер : 0042282671929
Источник (релизер): Рип оригинального диска из личной коллекции
Сканы: прилагаются


01. Sous le tilleul [Sotto il tiglio] (Angelo Branduardi)
02. Classical Gas (Mason Williams)
03. Nimrod (Elgar)
04. Blue Rondo à la Turk (Dave Brubeck)
05. Secret Gardens (Judy Collins)
06. Ich bin dein Baum (arr. D.Bakker)
07. Children of Sanchez (Chuck Mangione)
08. Zwei Engel im Drievierteltakt (Louis van Dijk)
09. James (Billy Joel)
10. Pieds en l'air (Warlock)
Judy Schomper, скрипка
Berdien Steunenberg, флейта
Dick Bakker, аранжировщик и дирижер оркестра
Rob van Kreeveld, рояль
Marjes Benoist, рояль (#6)
-

Лог создания рипа

Exact Audio Copy V1.0 beta 3 from 29. August 2011
EAC extraction logfile from 20. June 2013, 13:57
Judy Schomper & Berdien Stenberg / Secret Gardens (Philips 826 719-2)
Used drive : TSSTcorpCDDVDW TS-L633C Adapter: 2 ID: 0
Read mode : Secure
Utilize accurate stream : Yes
Defeat audio cache : Yes
Make use of C2 pointers : No
Read offset correction : 6
Overread into Lead-In and Lead-Out : No
Fill up missing offset samples with silence : Yes
Delete leading and trailing silent blocks : No
Null samples used in CRC calculations : Yes
Used interface : Native Win32 interface for Win NT & 2000
Used output format : Internal WAV Routines
Sample format : 44.100 Hz; 16 Bit; Stereo
TOC of the extracted CD
Track | Start | Length | Start sector | End sector
---------------------------------------------------------
1 | 0:00.33 | 3:08.12 | 33 | 14144
2 | 3:08.45 | 3:15.45 | 14145 | 28814
3 | 6:24.15 | 4:09.68 | 28815 | 47557
4 | 10:34.08 | 5:20.17 | 47558 | 71574
5 | 15:54.25 | 3:54.00 | 71575 | 89124
6 | 19:48.25 | 4:38.70 | 89125 | 110044
7 | 24:27.20 | 4:02.00 | 110045 | 128194
8 | 28:29.20 | 4:45.68 | 128195 | 149637
9 | 33:15.13 | 4:09.17 | 149638 | 168329
10 | 37:24.30 | 3:47.35 | 168330 | 185389
Range status and errors
Selected range
Filename D:\Judy Schomper & Berdien Stenberg - Secret Gardens (Philips 826 719-2).wav
Peak level 90.3 %
Extraction speed 3.4 X
Range quality 100.0 %
Test CRC A1E1C4EC
Copy CRC A1E1C4EC
Copy OK
No errors occurred
AccurateRip summary
Track 1 not present in database
Track 2 not present in database
Track 3 not present in database
Track 4 not present in database
Track 5 not present in database
Track 6 not present in database
Track 7 not present in database
Track 8 not present in database
Track 9 not present in database
Track 10 not present in database
None of the tracks are present in the AccurateRip database
End of status report
---- CUETools DB Plugin V2.1.4
[CTDB TOCID: e6T5XQgrALN..N.2TVPJ6TWFUyM-] disk not present in database
Submit result: e6T5XQgrALN..N.2TVPJ6TWFUyM- has been uploaded

Содержание индексной карты (.CUE)

REM GENRE "Easy Listening"
REM DATE 1980
REM DISCID 9109A70A
REM COMMENT "ExactAudioCopy v1.0b3"
PERFORMER "Judy Schomper & Berdien Stenberg"
TITLE "Secret Gardens (Philips 826 719-2)"
FILE "Judy Schomper & Berdien Stenberg - Secret Gardens (Philips 826 719-2).flac" WAVE
TRACK 01 AUDIO
TITLE "Sous le tilleul"
PERFORMER "Judy Schomper & Berdien Stenberg"
INDEX 00 00:00:00
INDEX 01 00:00:33
TRACK 02 AUDIO
TITLE "Classical Gas"
PERFORMER "Judy Schomper & Berdien Stenberg"
INDEX 00 03:04:50
INDEX 01 03:08:45
TRACK 03 AUDIO
TITLE "Nimrod"
PERFORMER "Judy Schomper & Berdien Stenberg"
INDEX 00 06:19:60
INDEX 01 06:24:15
TRACK 04 AUDIO
TITLE "Blue Rondo a la Turk"
PERFORMER "Judy Schomper & Berdien Stenberg"
INDEX 00 10:30:18
INDEX 01 10:34:08
TRACK 05 AUDIO
TITLE "Secret Gardens"
PERFORMER "Judy Schomper & Berdien Stenberg"
INDEX 00 15:51:25
INDEX 01 15:54:25
TRACK 06 AUDIO
TITLE "Ich bin dein Baum"
PERFORMER "Judy Schomper & Berdien Stenberg"
INDEX 00 19:44:48
INDEX 01 19:48:25
TRACK 07 AUDIO
TITLE "Children of Sanchez"
PERFORMER "Judy Schomper & Berdien Stenberg"
INDEX 00 24:24:73
INDEX 01 24:27:20
TRACK 08 AUDIO
TITLE "Zwei Engel im Dreivierteltakt"
PERFORMER "Judy Schomper & Berdien Stenberg"
INDEX 00 28:24:45
INDEX 01 28:29:20
TRACK 09 AUDIO
TITLE "James"
PERFORMER "Judy Schomper & Berdien Stenberg"
INDEX 00 33:10:53
INDEX 01 33:15:13
TRACK 10 AUDIO
TITLE "Pieds en l'air"
PERFORMER "Judy Schomper & Berdien Stenberg"
INDEX 00 37:20:55
INDEX 01 37:24:30

1983. RONDO RUSSO ●★● Philips 814 220-2 ●★● West Germany

Год выпуска диска : 1983
Производитель диска : West Germany
Аудио кодек : FLAC
Тип рипа : image+.cue (Test & Copy)
Битрейт аудио : lossless
Продолжительность : 35:52
Лейбл : Philips
Каталожный номер : 0042281422027
Источник (релизер): Рип оригинального диска из личной коллекции
Сканы: прилагаются


01. The Moldau (Smetana)
02. Rondo Russo [from 'Flute Concerto in E minor'] (Mercadante/arr. M. Jardini)
03. Gymnopedie No. 1 (Satie)
04. Scherzo [from 'A Midsummer Night's Dream' Op. 61] (Mendelssohn-Bartholdy)
05. Tambourin (Gretry)
06. Anitra's Dance [from 'Peer Gynt Suite No. I Op. 46'] (Grieg)
07. Allegro [from 'Trumpet Concerto in E Flat'] (Haydn)
08. Morning Mood [from 'Peer Gynt Suite No. I Op. 46'] (Grieg)
09. Merry We Will Be [La pulce d'acqua] (Angelo Branduardi)
-

Лог создания рипа

Exact Audio Copy V1.0 beta 3 from 29. August 2011
EAC extraction logfile from 29. July 2013, 15:52
Berdien Stenberg / Rondo Russo (Philips 814 220-2)
Used drive : TSSTcorpCDDVDW TS-L633C Adapter: 2 ID: 0
Read mode : Secure
Utilize accurate stream : Yes
Defeat audio cache : Yes
Make use of C2 pointers : No
Read offset correction : 6
Overread into Lead-In and Lead-Out : No
Fill up missing offset samples with silence : Yes
Delete leading and trailing silent blocks : No
Null samples used in CRC calculations : Yes
Used interface : Native Win32 interface for Win NT & 2000
Used output format : Internal WAV Routines
Sample format : 44.100 Hz; 16 Bit; Stereo
TOC of the extracted CD
Track | Start | Length | Start sector | End sector
---------------------------------------------------------
1 | 0:00.32 | 6:18.13 | 32 | 28394
2 | 6:18.45 | 4:17.50 | 28395 | 47719
3 | 10:36.20 | 4:58.40 | 47720 | 70109
4 | 15:34.60 | 3:02.35 | 70110 | 83794
5 | 18:37.20 | 3:20.30 | 83795 | 98824
6 | 21:57.50 | 3:11.45 | 98825 | 113194
7 | 25:09.20 | 3:19.27 | 113195 | 128146
8 | 28:28.47 | 4:23.48 | 128147 | 147919
9 | 32:52.20 | 2:59.20 | 147920 | 161364
Range status and errors
Selected range
Filename D:\Berdien Stenberg - Rondo Russo (Philips 814 220-2).wav
Peak level 93.9 %
Extraction speed 3.1 X
Range quality 100.0 %
Test CRC 51D86829
Copy CRC 51D86829
Copy OK
No errors occurred
AccurateRip summary
Track 1 accurately ripped (confidence 5) [3494A1D0] (AR v2)
Track 2 accurately ripped (confidence 5) [E1575FC0] (AR v2)
Track 3 accurately ripped (confidence 5) [D9091B55] (AR v2)
Track 4 accurately ripped (confidence 5) [CA28FFFB] (AR v2)
Track 5 accurately ripped (confidence 5) [E3BAF87B] (AR v2)
Track 6 accurately ripped (confidence 5) [E0DF81BD] (AR v2)
Track 7 accurately ripped (confidence 5) [A7B5AE69] (AR v2)
Track 8 accurately ripped (confidence 5) [DDF906B5] (AR v2)
Track 9 accurately ripped (confidence 5) [9BBBB3CF] (AR v2)
All tracks accurately ripped
End of status report
---- CUETools DB Plugin V2.1.4
[CTDB TOCID: 7a9jdlD9usKl2vWG49aCpoimDVc-] found
Submit result: 7a9jdlD9usKl2vWG49aCpoimDVc- has been confirmed
Track | CTDB Status
1 | (1/1) Accurately ripped
2 | (1/1) Accurately ripped
3 | (1/1) Accurately ripped
4 | (1/1) Accurately ripped
5 | (1/1) Accurately ripped
6 | (1/1) Accurately ripped
7 | (1/1) Accurately ripped
8 | (1/1) Accurately ripped
9 | (1/1) Accurately ripped
==== Log checksum F3C50AEC51EAB7097CD307B5296D5ED263C62BF152DAFC36614C7D2451FEC993 ====

Содержание индексной карты (.CUE)

REM GENRE "Easy Listening"
REM DATE 1983
REM DISCID 70086709
REM COMMENT "ExactAudioCopy v1.0b3"
PERFORMER "Berdien Stenberg"
TITLE "Rondo Russo (Philips 814 220-2)"
FILE "Berdien Stenberg - Rondo Russo (Philips 814 220-2).flac" WAVE
TRACK 01 AUDIO
TITLE "The Moldau"
PERFORMER "Berdien Stenberg"
INDEX 00 00:00:00
INDEX 01 00:00:32
TRACK 02 AUDIO
TITLE "Rondo Russo"
PERFORMER "Berdien Stenberg"
INDEX 00 06:16:70
INDEX 01 06:18:45
TRACK 03 AUDIO
TITLE "Gymnopedie"
PERFORMER "Berdien Stenberg"
INDEX 00 10:35:02
INDEX 01 10:36:20
TRACK 04 AUDIO
TITLE "Scherzo"
PERFORMER "Berdien Stenberg"
INDEX 00 15:32:22
INDEX 01 15:34:60
TRACK 05 AUDIO
TITLE "Tambourin"
PERFORMER "Berdien Stenberg"
INDEX 00 18:35:64
INDEX 01 18:37:20
TRACK 06 AUDIO
TITLE "Anitra's Dance"
PERFORMER "Berdien Stenberg"
INDEX 00 21:57:02
INDEX 01 21:57:50
TRACK 07 AUDIO
TITLE "Allegro"
PERFORMER "Berdien Stenberg"
INDEX 00 25:08:25
INDEX 01 25:09:20
TRACK 08 AUDIO
TITLE "Morning Mood"
PERFORMER "Berdien Stenberg"
INDEX 00 28:27:61
INDEX 01 28:28:47
TRACK 09 AUDIO
TITLE "Merry We Will Be"
PERFORMER "Berdien Stenberg"
INDEX 00 32:50:09
INDEX 01 32:52:20

1984. BERDINERIE ●★● Philips 822 667-2 ●★● West Germany

Год выпуска диска : 1984
Производитель диска : West Germany
Аудио кодек : FLAC
Тип рипа : image+.cue (Test & Copy)
Битрейт аудио : lossless
Продолжительность : 41:00
Лейбл : Philips
Каталожный номер : 0042282266729
Источник (релизер): Рип оригинального диска из личной коллекции
Сканы: прилагаются


01. Vivace [Rondo from 'Eine kleine Nachtmusik'] (Mozart)
02. Serenade [from 'String Quartet in E'] (Haydn)
03. L'arte del violino (Locatelli)
04. Allegretto [from 'Symphony No. 3'] (Brahms)
05. Habanera [from 'Carmen'] (Bizet)
06. Romance [Theme from Reilly] (Shostakovich)
07. Allegro [from 'Symphony No. 40'] (Mozart)
08. Minuet [from 'String Quartet in E'] (Boccherini)
09. Rosamunde [from 'Ballet Music'] (Schubert)
10. Berdinerie (Louis van Dijk)
-

Лог создания рипа

Exact Audio Copy V1.0 beta 3 from 29. August 2011
EAC extraction logfile from 28. June 2013, 12:41
Berdien Stenberg / Berdinerie (Philips 822 667-2)
Used drive : TSSTcorpCDDVDW TS-L633C Adapter: 2 ID: 0
Read mode : Secure
Utilize accurate stream : Yes
Defeat audio cache : Yes
Make use of C2 pointers : No
Read offset correction : 6
Overread into Lead-In and Lead-Out : No
Fill up missing offset samples with silence : Yes
Delete leading and trailing silent blocks : No
Null samples used in CRC calculations : Yes
Used interface : Native Win32 interface for Win NT & 2000
Used output format : Internal WAV Routines
Sample format : 44.100 Hz; 16 Bit; Stereo
TOC of the extracted CD
Track | Start | Length | Start sector | End sector
---------------------------------------------------------
1 | 0:00.32 | 2:46.33 | 32 | 12514
2 | 2:46.65 | 4:27.52 | 12515 | 32591
3 | 7:14.42 | 3:00.05 | 32592 | 46096
4 | 10:14.47 | 4:32.50 | 46097 | 66546
5 | 14:47.22 | 6:13.13 | 66547 | 94534
6 | 21:00.35 | 4:24.27 | 94535 | 114361
7 | 25:24.62 | 4:28.48 | 114362 | 134509
8 | 29:53.35 | 3:21.62 | 134510 | 149646
9 | 33:15.22 | 4:16.20 | 149647 | 168866
10 | 37:31.42 | 3:28.15 | 168867 | 184481
Range status and errors
Selected range
Filename D:\Berdien Stenberg - Berdinerie (Philips 822 667-2).wav
Peak level 95.5 %
Extraction speed 1.2 X
Range quality 99.9 %
Test CRC 93B87FD2
Copy CRC 93B87FD2
Copy OK
No errors occurred
AccurateRip summary
Track 1 accurately ripped (confidence 5) [2459CBA4] (AR v1)
Track 2 accurately ripped (confidence 5) [69B4001B] (AR v1)
Track 3 accurately ripped (confidence 5) [18465EB5] (AR v1)
Track 4 accurately ripped (confidence 5) [B31C1B07] (AR v1)
Track 5 accurately ripped (confidence 5) [F27CFF30] (AR v1)
Track 6 accurately ripped (confidence 5) [8F147C37] (AR v1)
Track 7 accurately ripped (confidence 5) [D06757D0] (AR v1)
Track 8 accurately ripped (confidence 5) [2F04427D] (AR v1)
Track 9 accurately ripped (confidence 5) [C1849713] (AR v1)
Track 10 accurately ripped (confidence 5) [D9EEB5E1] (AR v1)
All tracks accurately ripped
End of status report
---- CUETools DB Plugin V2.1.4
[CTDB TOCID: pNn0ky4lcHZwCXdm6eYkGx02bdE-] disk not present in database
Submit result: pNn0ky4lcHZwCXdm6eYkGx02bdE- has been uploaded

Содержание индексной карты (.CUE)

REM GENRE "Easy Listening"
REM DATE 1984
REM DISCID 99099B0A
REM COMMENT "ExactAudioCopy v1.0b3"
PERFORMER "Berdien Stenberg"
TITLE "Berdinerie (Philips 822 667-2)"
FILE "Berdien Stenberg - Berdinerie (Philips 822 667-2).flac" WAVE
TRACK 01 AUDIO
TITLE "Vivace"
PERFORMER "Berdien Stenberg"
INDEX 00 00:00:00
INDEX 01 00:00:32
TRACK 02 AUDIO
TITLE "Serenade"
PERFORMER "Berdien Stenberg"
INDEX 01 02:46:65
TRACK 03 AUDIO
TITLE "L'arte del violino"
PERFORMER "Berdien Stenberg"
INDEX 01 07:14:42
TRACK 04 AUDIO
TITLE "Allegretto"
PERFORMER "Berdien Stenberg"
INDEX 00 10:14:05
INDEX 01 10:14:47
TRACK 05 AUDIO
TITLE "Habanera"
PERFORMER "Berdien Stenberg"
INDEX 00 14:47:15
INDEX 01 14:47:22
TRACK 06 AUDIO
TITLE "Romance"
PERFORMER "Berdien Stenberg"
INDEX 00 21:00:00
INDEX 01 21:00:35
TRACK 07 AUDIO
TITLE "Allegro"
PERFORMER "Berdien Stenberg"
INDEX 00 25:23:38
INDEX 01 25:24:62
TRACK 08 AUDIO
TITLE "Minuet"
PERFORMER "Berdien Stenberg"
INDEX 00 29:53:23
INDEX 01 29:53:35
TRACK 09 AUDIO
TITLE "Rosamunde"
PERFORMER "Berdien Stenberg"
INDEX 00 33:14:73
INDEX 01 33:15:22
TRACK 10 AUDIO
TITLE "Berdinerie"
PERFORMER "Berdien Stenberg"
INDEX 00 37:30:60
INDEX 01 37:31:42

1985. ALL SEASONS ●★● Philips 826 210-2 ●★● West Germany

Год выпуска диска : 1985
Производитель диска : West Germany
Аудио кодек : FLAC
Тип рипа : image+.cue (Test & Copy)
Битрейт аудио : lossless
Продолжительность : 39:45
Лейбл : Philips
Каталожный номер : 0042282621023
Источник (релизер): Рип оригинального диска из личной коллекции
Сканы: прилагаются


01. Summer [from 'The Four Seasons'] (Vivaldi)
02. Autumn [from 'The Four Seasons'] (Vivaldi)
03. Lascia ch'io pianga [from 'Rinaldo'] (Handel)
04. Veloce (Rogier van Otterloo)
05. Firedance / Extasy [from 'El amor brujo'] (De Falla)
06. Ballade [No. 1, Op. 23] (Chopin)
07. Finale [from 'Symphony No. 88'] (Haydn)
08. Stabat mater dolorosa [from 'Stabat mater'] (Pergolesi)
09. Winter [from 'The Four Seasons'] (Vivaldi)
10. Spring [from 'The Four Seasons'] (Vivaldi)
11. Souvenir d'un amour d'été (Louis van Dijk)
-

Лог создания рипа

Exact Audio Copy V1.0 beta 3 from 29. August 2011
EAC extraction logfile from 8. June 2013, 12:17
Berdien Stenberg / All Seasons (Philips 826 210-2)
Used drive : TSSTcorpCDDVDW TS-L633C Adapter: 2 ID: 0
Read mode : Secure
Utilize accurate stream : Yes
Defeat audio cache : Yes
Make use of C2 pointers : No
Read offset correction : 6
Overread into Lead-In and Lead-Out : No
Fill up missing offset samples with silence : Yes
Delete leading and trailing silent blocks : No
Null samples used in CRC calculations : Yes
Used interface : Native Win32 interface for Win NT & 2000
Used output format : Internal WAV Routines
Sample format : 44.100 Hz; 16 Bit; Stereo
TOC of the extracted CD
Track | Start | Length | Start sector | End sector
---------------------------------------------------------
1 | 0:00.33 | 3:15.00 | 33 | 14657
2 | 3:15.33 | 2:45.00 | 14658 | 27032
3 | 6:00.33 | 3:57.12 | 27033 | 44819
4 | 9:57.45 | 3:35.63 | 44820 | 61007
5 | 13:33.33 | 5:08.00 | 61008 | 84107
6 | 18:41.33 | 3:13.50 | 84108 | 98632
7 | 21:55.08 | 3:32.00 | 98633 | 114532
8 | 25:27.08 | 4:01.00 | 114533 | 132607
9 | 29:28.08 | 3:40.50 | 132608 | 149157
10 | 33:08.58 | 3:22.12 | 149158 | 164319
11 | 36:30.70 | 3:14.38 | 164320 | 178907
Range status and errors
Selected range
Filename D:\Berdien Stenberg - All Seasons (Philips 826 210-2).wav
Peak level 97.7 %
Extraction speed 1.2 X
Range quality 99.9 %
Test CRC 94394C86
Copy CRC 94394C86
Copy OK
No errors occurred
AccurateRip summary
Track 1 accurately ripped (confidence 5) [06915CF3] (AR v1)
Track 2 accurately ripped (confidence 5) [F1023666] (AR v1)
Track 3 accurately ripped (confidence 5) [2BE58A2E] (AR v1)
Track 4 accurately ripped (confidence 5) [18B2A266] (AR v1)
Track 5 accurately ripped (confidence 5) [4BB5FB0C] (AR v1)
Track 6 accurately ripped (confidence 5) [116CA981] (AR v1)
Track 7 accurately ripped (confidence 5) [8A6E073B] (AR v1)
Track 8 accurately ripped (confidence 5) [DE4AF51A] (AR v1)
Track 9 accurately ripped (confidence 5) [72759511] (AR v1)
Track 10 accurately ripped (confidence 5) [6BC4B00F] (AR v1)
Track 11 accurately ripped (confidence 5) [DAAF9E68] (AR v1)
All tracks accurately ripped
End of status report

Содержание индексной карты (.CUE)

REM GENRE Easy Listening
REM DATE 1985
REM DISCID 9709510B
REM COMMENT ExactAudioCopy v1.0b3
PERFORMER "Berdien Stenberg"
TITLE "All Seasons (Philips 826 210-2)"
FILE "Berdien Stenberg - All Seasons (Philips 826 210-2).flac" WAVE
TRACK 01 AUDIO
TITLE "Summer"
INDEX 00 00:00:00
INDEX 01 00:00:33
TRACK 02 AUDIO
TITLE "Autumn"
INDEX 01 03:15:33
TRACK 03 AUDIO
TITLE "Lascia ch'io pianga"
INDEX 01 06:00:33
TRACK 04 AUDIO
TITLE "Veloce"
INDEX 01 09:57:45
TRACK 05 AUDIO
TITLE "Firedance-Extasy"
INDEX 01 13:33:33
TRACK 06 AUDIO
TITLE "Ballade"
INDEX 01 18:41:33
TRACK 07 AUDIO
TITLE "Finale"
INDEX 01 21:55:08
TRACK 08 AUDIO
TITLE "Stabat mater dolorosa"
INDEX 01 25:27:08
TRACK 09 AUDIO
TITLE "Winter"
INDEX 01 29:28:08
TRACK 10 AUDIO
TITLE "Spring"
INDEX 01 33:08:58
TRACK 11 AUDIO
TITLE "Souvenir d'un amour d'été"
INDEX 01 36:30:70

1992. Melodies d'amour

Год выпуска диска : 1992 (оригинал)
Производитель диска : Holland
Аудио кодек : FLAC
Тип рипа : image+.cue (Test & Copy)
Битрейт аудио : lossless
Продолжительность : 54:16
Лейбл : Roman Disc
Каталожный номер : 5028421902159
Источник (релизер): Рип оригинального диска из личной коллекции
Сканы: прилагаются


01. Une fille de tous les pays; Dominique; Le printemps
02. Concerto pour une voix
03. Ne me quitte pas; Bruxelles; Rosa
04. Une fille aux yeux clairs; La maladie d'amour
05. Le lac majeur
06. Tous les visages de l'amour; Les plaisirs démodés; Hier encore
07. Une belle histoire; C'est ma vie
08. Je t'aime... moi non plus
09. Et maintenant; L'important c'est la rose; Natalie
10. Décalé
11. J'avais rêvé d'une autre vie
12. Un jour un enfant; Cent mille chansons

-Седьмым треком идет не заявленное на обложке Une belle histoire; C'est ma vie - а другое попурри Theme From Love Story - De hoogste tijd. Такая же ошибка была и на оригинальном издании Dino Music (DNCD 1318).-

Лог создания рипа

Exact Audio Copy V1.0 beta 3 from 29. August 2011
EAC extraction logfile from 27. November 2012, 19:10
Berdien Stenberg / Melodies d'amour {Reissue} (5028421902159)
Used drive : TSSTcorpCDDVDW TS-L633C Adapter: 2 ID: 0
Read mode : Secure
Utilize accurate stream : Yes
Defeat audio cache : Yes
Make use of C2 pointers : No
Read offset correction : 6
Overread into Lead-In and Lead-Out : No
Fill up missing offset samples with silence : Yes
Delete leading and trailing silent blocks : No
Null samples used in CRC calculations : Yes
Used interface : Native Win32 interface for Win NT & 2000
Used output format : Internal WAV Routines
Sample format : 44.100 Hz; 16 Bit; Stereo
TOC of the extracted CD
Track | Start | Length | Start sector | End sector
---------------------------------------------------------
1 | 0:00.32 | 3:42.45 | 32 | 16726
2 | 3:43.02 | 4:28.63 | 16727 | 36889
3 | 8:11.65 | 4:17.50 | 36890 | 56214
4 | 12:29.40 | 4:42.47 | 56215 | 77411
5 | 17:12.12 | 4:59.45 | 77412 | 99881
6 | 22:11.57 | 5:06.40 | 99882 | 122871
7 | 27:18.22 | 5:15.35 | 122872 | 146531
8 | 32:33.57 | 4:40.48 | 146532 | 167579
9 | 37:14.30 | 5:04.62 | 167580 | 190441
10 | 42:19.17 | 3:49.03 | 190442 | 207619
11 | 46:08.20 | 3:45.72 | 207620 | 224566
12 | 49:54.17 | 4:22.55 | 224567 | 244271
Range status and errors
Selected range
Filename C:\Users\user\Desktop\Berdien Stenberg - Melodies d'amour {UK Reissue} (5028421902159).wav
Peak level 96.2 %
Extraction speed 3.7 X
Range quality 100.0 %
Test CRC 12966571
Copy CRC 12966571
Copy OK
No errors occurred
AccurateRip summary
Track 1 accurately ripped (confidence 2) [91FCDB7D] (AR v1)
Track 2 accurately ripped (confidence 2) [2680F049] (AR v1)
Track 3 accurately ripped (confidence 2) [5D9865D7] (AR v1)
Track 4 accurately ripped (confidence 2) [5B6CC9D6] (AR v1)
Track 5 accurately ripped (confidence 2) [79BFC2D6] (AR v1)
Track 6 accurately ripped (confidence 2) [27A8DCE6] (AR v1)
Track 7 accurately ripped (confidence 2) [431D395C] (AR v1)
Track 8 accurately ripped (confidence 2) [EA68A74B] (AR v1)
Track 9 accurately ripped (confidence 2) [230D836B] (AR v1)
Track 10 accurately ripped (confidence 2) [AF59F9B2] (AR v1)
Track 11 accurately ripped (confidence 2) [919C6AB9] (AR v1)
Track 12 accurately ripped (confidence 2) [F550A43D] (AR v1)
All tracks accurately ripped
End of status report

Содержание индексной карты (.CUE)

REM GENRE Easy Listening
REM DATE 1992
REM DISCID 9C0CB80C
REM COMMENT ExactAudioCopy v1.0b3
PERFORMER "Berdien Stenberg"
TITLE "Melodies d'amour {Reissue} (5028421902159)"
FILE "Berdien Stenberg - Melodies d'amour {UK Reissue} (5028421902159).flac" WAVE
TRACK 01 AUDIO
TITLE "Une fille de tous les pays; Dominique; Le printemps"
INDEX 00 00:00:00
INDEX 01 00:00:32
TRACK 02 AUDIO
TITLE "Concerto pour une voix"
INDEX 00 03:42:45
INDEX 01 03:43:02
TRACK 03 AUDIO
TITLE "Ne me quitte pas; Bruxelles; Rosa"
INDEX 00 08:10:37
INDEX 01 08:11:65
TRACK 04 AUDIO
TITLE "Une fille aux yeux clairs; La maladie d'amour"
INDEX 00 12:29:25
INDEX 01 12:29:40
TRACK 05 AUDIO
TITLE "Le lac majeur"
INDEX 00 17:10:52
INDEX 01 17:12:12
TRACK 06 AUDIO
TITLE "Tous les visages de l'amour; Les plaisirs démodés; Hier encore"
INDEX 00 22:10:20
INDEX 01 22:11:57
TRACK 07 AUDIO
TITLE "Une belle histoire; C'est ma vie"
INDEX 00 27:17:42
INDEX 01 27:18:22
TRACK 08 AUDIO
TITLE "Je t'aime... moi non plus"
INDEX 00 32:31:72
INDEX 01 32:33:57
TRACK 09 AUDIO
TITLE "Et maintenant; L'important c'est la rose; Natalie"
INDEX 01 37:14:30
TRACK 10 AUDIO
TITLE "Décalé"
INDEX 01 42:19:17
TRACK 11 AUDIO
TITLE "J'avais rêvé d'une autre vie"
INDEX 01 46:08:20
TRACK 12 AUDIO
TITLE "Un jour un enfant; Cent mille chansons"
INDEX 00 49:53:20
INDEX 01 49:54:17
-



Показать сообщения:    

Текущее время: 03-Дек 01:22

Часовой пояс: UTC + 3


Вы не можете начинать темы
Вы не можете отвечать на сообщения
Вы не можете редактировать свои сообщения
Вы не можете удалять свои сообщения
Вы не можете голосовать в опросах
Вы не можете прикреплять файлы к сообщениям
Вы не можете скачивать файлы