Ив Монтан. Под счастливой звездой / Per Yves Montand (Нино Биззарри / Nino Bizzarri) [2002, документальный, фильм-портрет, DVB] DVO (Первый канал)


Статистика раздачи [Обновить пиров]
Размер:  1.6 GB   |    Зарегистрирован:  8 месяцев 22 дня   |    Скачан:  0 раз

Полного источника не было: Никогда

Личеров:  9  [  0 KB/s  ]   Подробная статистика пиров
 
   
 
 
 

[Цитировать]

Ив Монтан. Под счастливой звездой
Per Yves Montand- Год выпуска: 2002
Страна: Италия
Жанр: документальный, фильм-портрет
Продолжительность: 00:53:17
Перевод: Профессиональный (двухголосый) (по заказу ЗАО "Первый канал. Всемирная сеть")
Русские субтитры: нет
Режиссер: Нино Биззарри / Nino Bizzarri
Описание: Он взошел на Олимп славы, бывший грузчик, бывший парикмахер, бывший шофер, бывший мальчишка, копивший деньги, чтобы лишний раз попасть в кинотеатр и пересмотреть классику Голливуда. Разве мог он предположить, что со временем Голливуд раскроет ему свои объятия. История Ива Монтана (1921-1991) одновременно типична и неожиданна. Ведь сколько таких судеб, когда паренек из простой семьи становится кумиром из кумиров.
Впервые он вышел на сцену в ковбойском наряде - пытался подражать американским певцам. Он взял себе псевдоним, который можно перевести как "Растущий". Он "рос" и покорял новые вершины всю жизнь. Найти свой, неповторимый и столь знакомый теперь сценический образ ему помогла Эдит Пиаф. Это она составила ему репертуар, заставила избавиться от провинциального акцента, и, конечно же, влюбилась в него, как и тысячи женщин по всему миру. И это именно Пиаф привела его в кино. Он снимался у Клузо, Коста-Гавраса, Мельвиля и Кьюкора. Потом Монтан так и не сможет решить, что для него важнее: экран или сцена. Говорят, он волновался перед каждым концертом и был убежден - у него нет чувства ритма. Кажется, он изумлялся собственной популярности и пытался объяснить, то, что и так было очевидно для тысяч его поклонников.
Он был одновременно и мужественным, и нежным, брутальным и утонченным, ветреным и верным. Но главное - неподражаемым и непревзойденным Ивом Монтаном. Ему могло бы исполниться 90 лет.
Он говорил: "Не люблю, когда меня называют выдающимся актером. Я скорее бы назвал себя счастливчиком. Я бы назвал себя человеком, которому удалось не просто тратить время впустую, но повстречать выдающихся людей, повлиявших на его жизнь...".
Фильм содержит многочисленные фрагменты выступлений Монтана, отрывки из фильмов, а также интервью с его друзьями и самим артистом, в которых он рассказывает о своих отношениях с Италией и своих политических убеждениях.
Доп. информация: запись со спутника (канал "Время: далекое и близкое"). Итальянские вшитые субтитры во время интервью и песен на французском языке.
Награды: приз Rose d'Or Light Entertainment Festival 2002 в разделе "Музыка" + "Videokiosk top ten"; Специальный почетный приз URTI Grand Prix for Documentaries MonteCarlo 2002; Специальный приз Golden Albena (Bulgaria) 2002.
Информация: http://www.imdb.com/title/tt0427646/
Качество: DVB
Формат: MPG
Видео кодек: MPEG2
Аудио кодек: MP2
Видео: MPEG Video 2, 720x576@768x576 (4:3), 25 fps, ~4013 kbps avg
Аудио: 48 kHz, MPEG Audio 2, 2 ch, ~192.00 kbps avg

MediaInfo

Полное имя                               : H:\My Torrents\[apreder]Per_Yves_Montand(2002)DVB.mpg
Формат : MPEG-PS
Размер файла : 1,60 Гбайт
Продолжительность : 53 м.
Режим общего битрейта : Переменный
Общий поток : 4291 Кбит/сек
Видео
Идентификатор : 224 (0xE0)
Формат : MPEG Video
Версия формата : Version 2
Профиль формата : Main@Main
Параметр BVOP формата : Да
Параметр матрицы формата : Выборочная
Параметр GOP формата : M=3, N=12
Продолжительность : 53 м.
Вид битрейта : Переменный
Битрейт : 4013 Кбит/сек
Ширина : 720 пикселей
Высота : 576 пикселей
Соотношение сторон : 4:3
Частота кадров : 25,000 кадров/сек
Стандарт вещания : PAL
Цветовое пространство : YUV
Субдискретизация насыщенности : 4:2:0
Битовая глубина : 8 бит
Тип развёртки : Чересстрочная
Порядок развёртки : Верхнее поле первое
Метод сжатия : С потерями
Бит/(Пиксели*Кадры) : 0.387
Размер потока : 1,49 Гбайт (94%)
Аудио
Идентификатор : 192 (0xC0)
Формат : MPEG Audio
Версия формата : Version 1
Профиль формата : Layer 2
Продолжительность : 53 м.
Вид битрейта : Постоянный
Битрейт : 192 Кбит/сек
Каналы : 2 канала
Частота : 48,0 КГц
Метод сжатия : С потерями
Размер потока : 73,2 Мбайт (4%)

Скриншоты


Скриншоты анаморфированные


-479/461√
[teatrix.ru].t16709.torrent 
Торрент: Зарегистрирован [ 2016-03-16 12:44 ] · 4636F0A7E22F5B7648F074AF5AA9450FB1C8E2EA

Скачать .torrent

Скачать

16 KB

Статус: проверено
Скачан: 0 раз
Размер: 1.6 GB
terms.php



Показать сообщения:    

Текущее время: 08-Дек 10:57

Часовой пояс: UTC + 3


Вы не можете начинать темы
Вы не можете отвечать на сообщения
Вы не можете редактировать свои сообщения
Вы не можете удалять свои сообщения
Вы не можете голосовать в опросах
Вы не можете прикреплять файлы к сообщениям
Вы можете скачивать файлы