Ольга Аросева. Другая жизнь пани Моники (Ольга Резниченко) [2010, документальный, фильм-портрет, DVB]


Статистика раздачи [Обновить пиров]
Размер:  800 MB   |    Зарегистрирован:  8 месяцев 20 дней   |    Скачан:  1 раз

Полного источника не было: 2 месяца 7 дней

Личеров:  15  [  0 KB/s  ]   Подробная статистика пиров
 
   
 
 
 

[Цитировать]

Ольга Аросева
Другая жизнь пани Моники- Год выпуска: 2010
Страна: Россия
Жанр: документальный, фильм-портрет
Продолжительность: 00:39:07
Перевод: Не требуется
Русские субтитры: нет
Режиссер: Ольга РезниченкоВ ролях: Ольга Аросева, Александр Ширвиндт, Михаил Державин, Геннадий Хазанов, Елена Аросева, Лия Ахеджакова, Зоя Зелинская, Вера Васильева
Описание: В декабре 2010 года Ольга Аросева отметила сразу три юбилея – свое 85-летие, 65 лет на сцене и 60 – в Театре cатиры...
Для тех, кто вырос в СССР, Ольга Аросева – это, прежде всего, эксцентричная пани Моника из "Кабачка "13 стульев". Та, благодаря которой мы поняли: быть женщиной – весело. Она и в жизни никогда не изменяла чудесной женской непоследовательности, умудряясь всегда поступать наперекор обстоятельствам. Она родилась в один день со Сталиным и отказалась вступать в комсомол. Она кружила головы мужчинам и много раз выходила замуж, но больше всего любила преферанс с подругами. Она научила советских женщин элегантности, но настоящая ее слабость – баня и квашеная капуста. Какая же она на самом деле – русская актриса и заслуженный деятель искусств Польши Ольга Аросева? (анонс канала "ТВ Центр")
Доп. информация: Собственная запись со спутника (канал "Кто есть кто", пакет НТВ+).
Качество: DVB
Формат: MPG
Видео кодек: MPEG2
Аудио кодек: MP2
Видео: MPEG Video 2, 704x576@768x576 (4:3), 25 fps, ~2611 kbps avg
Аудио: 48 kHz, MPEG Audio 2, 2 ch, ~192.00 kbps avg

MediaInfo

Полное имя                               : H:\My Torrents\[apreder]Another_Life_of_Pani_Monika(2010)DVB.mpg
Формат : MPEG-PS
Размер файла : 800 Мбайт
Продолжительность : 39 м.
Режим общего битрейта : Переменный
Общий поток : 2860 Кбит/сек
Видео
Идентификатор : 224 (0xE0)
Формат : MPEG Video
Версия формата : Version 2
Профиль формата : Main@Main
Параметр BVOP формата : Да
Параметр матрицы формата : Выборочная
Параметр GOP формата : M=3, N=24
Продолжительность : 39 м.
Вид битрейта : Переменный
Битрейт : 2611 Кбит/сек
Ширина : 704 пикселя
Высота : 576 пикселей
Соотношение сторон : 4:3
Частота кадров : 25,000 кадров/сек
Стандарт вещания : PAL
Цветовое пространство : YUV
Субдискретизация насыщенности : 4:2:0
Битовая глубина : 8 бит
Тип развёртки : Прогрессивная
Порядок развёртки : Верхнее поле первое
Метод сжатия : С потерями
Бит/(Пиксели*Кадры) : 0.258
Размер потока : 731 Мбайт (91%)
Аудио
Идентификатор : 192 (0xC0)
Формат : MPEG Audio
Версия формата : Version 1
Профиль формата : Layer 2
Продолжительность : 39 м.
Вид битрейта : Постоянный
Битрейт : 192 Кбит/сек
Каналы : 2 канала
Частота : 48,0 КГц
Метод сжатия : С потерями
Размер потока : 53,7 Мбайт (7%)

Скриншоты


Скриншоты анаморфированные


-482/464√
[teatrix.ru].t16712.torrent 
Торрент: Зарегистрирован [ 2016-03-16 12:52 ] · 66FE4EAE95DA782D37E31E58B110114D53CDA0BF

Скачать .torrent

Скачать

16 KB

Статус: проверено
Скачан: 1 раз
Размер: 800 MB
terms.php



Показать сообщения:    

Текущее время: 05-Дек 17:33

Часовой пояс: UTC + 3


Вы не можете начинать темы
Вы не можете отвечать на сообщения
Вы не можете редактировать свои сообщения
Вы не можете удалять свои сообщения
Вы не можете голосовать в опросах
Вы не можете прикреплять файлы к сообщениям
Вы можете скачивать файлы