(Easy Listening, Classical Crossover, Oboe) Han de Vries - Appassionato (Mercury 842 130-2) - 1989, FLAC (image+.cue), lossless


 

[Цитировать]

-Han de Vries - Appassionato-
Жанр : Easy Listening, Classical Crossover
Год выпуска диска : 1989
Производитель диска : West Germany {by PDO}
Аудио кодек : FLAC
Тип рипа : image+.cue (Test & Copy)
Битрейт аудио : lossless
Продолжительность : 40:34
Лейбл : Mercury / Phonogram
Каталожный номер : 0042284213028
Источник (релизер): Рип оригинального диска из личной коллекции
Сканы: прилагаются


01. Gabriel's Oboe (Ennio Morricone)
02. Sinfonia (Georg Friedrich Händel)
03. Canzone (Alexander Voormolen)
04. Coloriet (Louis van Dijk)
05. Après un rêve (Gabriel Fauré)
06. Poco allegretto (Johannes Brahms)
07. Schäfe können sicher weiden (Johann Sebastian Bach)
08. Introduzione (Domenico Cimarosa)
09. Spinnerlied (Felix Mendelssohn Bartholdy)
10. Vocalise (Sergei Rachmaninoff)
11. Carte postale (Georges Delerue)
12. Emmanuel (Michel Colombier)
13. Prélude, Fugue et Variation, Op.18 (Cesar Franck)
14. Chanson de l'adieu (Francesco Paolo Tosti)
-Альбом записан в лондонской студии C.T.S. Studio, 26-28 августа 1989
Han de Vries, гобой
The London Studio Orchestra, оркестр
Dick Bakker, дирижер; аранжировщик (1,5,6,8,9,11,13)
Jurre Haanstra, аранжировщик (2-4,7,10,12,14)

-Дополнительная информация: Изумительный (и очень редкий) альбом голландского гобоиста Хана де Фриса, включает произведения классических авторов - Бах, Брамс, Рахманинов, так и более современных - Морриконе, Делерю, Коломбье и специально написанный для него трек - Coloriet - известным голландским джазовым пианистом Луи ван Дийком. Куплен на ebay.
Для всез тех. кто любит стиль "Музыка для души".-

Лог создания рипа

Exact Audio Copy V1.0 beta 3 from 29. August 2011
EAC extraction logfile from 27. November 2012, 18:15
Han de Vries / Appassionato (Mercury 842 130-2)
Used drive : TSSTcorpCDDVDW TS-L633C Adapter: 2 ID: 0
Read mode : Secure
Utilize accurate stream : Yes
Defeat audio cache : Yes
Make use of C2 pointers : No
Read offset correction : 6
Overread into Lead-In and Lead-Out : No
Fill up missing offset samples with silence : Yes
Delete leading and trailing silent blocks : No
Null samples used in CRC calculations : Yes
Used interface : Native Win32 interface for Win NT & 2000
Used output format : Internal WAV Routines
Sample format : 44.100 Hz; 16 Bit; Stereo
TOC of the extracted CD
Track | Start | Length | Start sector | End sector
---------------------------------------------------------
1 | 0:00.32 | 2:40.58 | 32 | 12089
2 | 2:41.15 | 2:54.45 | 12090 | 25184
3 | 5:35.60 | 3:37.52 | 25185 | 41511
4 | 9:13.37 | 2:30.38 | 41512 | 52799
5 | 11:44.00 | 2:28.37 | 52800 | 63936
6 | 14:12.37 | 2:18.13 | 63937 | 74299
7 | 16:30.50 | 4:21.12 | 74300 | 93886
8 | 20:51.62 | 2:48.30 | 93887 | 106516
9 | 23:40.17 | 2:05.08 | 106517 | 115899
10 | 25:45.25 | 3:00.27 | 115900 | 129426
11 | 28:45.52 | 3:03.00 | 129427 | 143151
12 | 31:48.52 | 2:43.03 | 143152 | 155379
13 | 34:31.55 | 3:18.35 | 155380 | 170264
14 | 37:50.15 | 2:44.55 | 170265 | 182619
Range status and errors
Selected range
Filename C:\Users\user\Desktop\Han de Vries - Appassionato (Mercury 842 130-2).wav
Peak level 98.4 %
Extraction speed 1.2 X
Range quality 100.0 %
Test CRC 14DFF6E1
Copy CRC 14DFF6E1
Copy OK
No errors occurred
AccurateRip summary
Track 1 accurately ripped (confidence 1) [2E5EFBCC] (AR v1)
Track 2 accurately ripped (confidence 1) [9E6179A7] (AR v1)
Track 3 accurately ripped (confidence 1) [AC450B8D] (AR v1)
Track 4 accurately ripped (confidence 1) [B8FE1CCD] (AR v1)
Track 5 accurately ripped (confidence 1) [3847597A] (AR v1)
Track 6 accurately ripped (confidence 1) [EE38F1ED] (AR v1)
Track 7 accurately ripped (confidence 1) [240138E7] (AR v1)
Track 8 accurately ripped (confidence 1) [0D03C97A] (AR v1)
Track 9 accurately ripped (confidence 1) [4FED3446] (AR v1)
Track 10 accurately ripped (confidence 1) [3DBAB48A] (AR v1)
Track 11 accurately ripped (confidence 1) [11A45534] (AR v1)
Track 12 accurately ripped (confidence 1) [6CE800C9] (AR v1)
Track 13 accurately ripped (confidence 1) [D7C36194] (AR v1)
Track 14 accurately ripped (confidence 1) [3DD4708F] (AR v1)
All tracks accurately ripped
End of status report

Содержание индексной карты (.CUE)

REM GENRE Easy Listening
REM DATE 1989
REM DISCID B409820E
REM COMMENT ExactAudioCopy v1.0b3
PERFORMER "Han de Vries"
TITLE "Appassionato (Mercury 842 130-2)"
FILE "Han de Vries - Appassionato (Mercury 842 130-2).flac" WAVE
TRACK 01 AUDIO
TITLE "Gabriel's Oboe"
INDEX 00 00:00:00
INDEX 01 00:00:32
TRACK 02 AUDIO
TITLE "Sinfonia"
INDEX 00 02:38:62
INDEX 01 02:41:15
TRACK 03 AUDIO
TITLE "Canzone"
INDEX 00 05:32:35
INDEX 01 05:35:60
TRACK 04 AUDIO
TITLE "Coloriet"
INDEX 00 09:09:56
INDEX 01 09:13:37
TRACK 05 AUDIO
TITLE "Après un rêve"
INDEX 00 11:40:35
INDEX 01 11:44:00
TRACK 06 AUDIO
TITLE "Poco allegretto"
INDEX 00 14:09:10
INDEX 01 14:12:37
TRACK 07 AUDIO
TITLE "Schäfe können sicher weiden"
INDEX 00 16:28:02
INDEX 01 16:30:50
TRACK 08 AUDIO
TITLE "Introduzione"
INDEX 00 20:48:31
INDEX 01 20:51:62
TRACK 09 AUDIO
TITLE "Spinnerlied"
INDEX 00 23:36:60
INDEX 01 23:40:17
TRACK 10 AUDIO
TITLE "Vocalise"
INDEX 00 25:42:05
INDEX 01 25:45:25
TRACK 11 AUDIO
TITLE "Carte postale"
INDEX 00 28:40:65
INDEX 01 28:45:52
TRACK 12 AUDIO
TITLE "Emmanuel"
INDEX 00 31:44:72
INDEX 01 31:48:52
TRACK 13 AUDIO
TITLE "Prélude, Fugue et Variation, Op.18"
INDEX 00 34:28:05
INDEX 01 34:31:55
TRACK 14 AUDIO
TITLE "Chanson de l'adieu"
INDEX 00 37:45:15
INDEX 01 37:50:15

Скриншот спектра частот




Показать сообщения:    

Текущее время: 08-Дек 17:24

Часовой пояс: UTC + 3


Вы не можете начинать темы
Вы не можете отвечать на сообщения
Вы не можете редактировать свои сообщения
Вы не можете удалять свои сообщения
Вы не можете голосовать в опросах
Вы не можете прикреплять файлы к сообщениям
Вы не можете скачивать файлы