Бывает же такое! / "Киноляпы" (Эфир от 25-11-2012) [2012, Документальный, SATRip]


Статистика раздачи [Обновить пиров]
Размер:  301 MB   |    Зарегистрирован:  8 месяцев 22 дня   |    Скачан:  0 раз

Полного источника не было: Никогда

Личеров:  3  [  0 KB/s  ]   Подробная статистика пиров
 
   
 
 
 

[Цитировать]

Бывает же такое! / "Киноляпы" (Эфир от 25-11-2012)
Год выпуска: 2012
Страна: Россия
Жанр: Документальный
Продолжительность: 00:24:16
Перевод: Не требуется
Описание: Цикл интересных программ телеканала НТВ.

Дополнительно:

Почему ему бинтуют левую руку, а забинтованной оказывается правая? Как кино про детский сад снимали в публичном доме? И кто все-таки играл Атоса в «Трех мушкетерах»?
Ошибки, которые уже невозможно исправить.Откровения мэтров кино и их киноляпы — в программе «Бывает же такое!».
Качество: SATRip
Формат: AVI
Видео кодек: XviD
Аудио кодек: MP3
Видео: 640x416, 25 fps, XviD ~1566 kbps avg
Аудио: 48000 Hz, 96 kbps, 2 Channel, MP3

MI

Общее
Полное имя : E:\Downloads\Buvaet.je.takoe.(25.11.2012).SATRip.by.Suprug.avi
Формат : AVI
Формат/Информация : Audio Video Interleave
Размер файла : 301 Мбайт
Продолжительность : 25 м.
Общий поток : 1672 Кбит/сек
Программа кодирования : VirtualDubMod 1.5.10.3 | www.virtualdub-fr.org || (build 2550/release)
Библиотека кодирования : VirtualDubMod build 2550/release
Видео
Идентификатор : 0
Формат : MPEG-4 Visual
Профиль формата : Advanced Simple@L5
Параметр BVOP формата : 1
Параметр QPel формата : Нет
Параметр GMC формата : Без точки перехода
Параметр матрицы формата : Default (H.263)
Идентификатор кодека : XVID
Идентификатор кодека/Подсказка : XviD
Продолжительность : 25 м.
Битрейт : 1566 Кбит/сек
Ширина : 640 пикс.
Высота : 416 пикс.
Соотношение сторон : 3:2
Частота кадров : 25,000 кадр/сек
Цветовое пространство : YUV
Подвыборка цветности : 4:2:0
Битовая глубина : 8 бит
Тип развёртки : Прогрессивная
Метод сжатия : С потерями
Бит/(Пиксели*Кадры) : 0.235
Размер потока : 282 Мбайт (94%)
Библиотека кодирования : XviD 64
Аудио
Идентификатор : 1
Формат : MPEG Audio
Версия формата : Version 1
Профиль формата : Layer 3
Режим : Joint stereo
Расширение режима : MS Stereo
Идентификатор кодека : 55
Идентификатор кодека/Подсказка : MP3
Продолжительность : 25 м.
Вид битрейта : Постоянный
Битрейт : 96,0 Кбит/сек
Каналы : 2 канала
Частота : 32,0 КГц
Метод сжатия : С потерями
Размер потока : 17,3 Мбайт (6%)
Выравнивание : Соединение по промежуткам
Продолжительность промежутка : 40 мс. (1,00 видеокадр)
Время предзагрузки промежутка : 504 ms
Библиотека кодирования : LAME3.98r
Настройки программы : -m j -V 4 -q 2 -lowpass 15.1 -b 96
Раздача группы:
Релиз: Suprug

Эфир от 25-11-2012 Скриншоты

[teatrix.ru].t16719.torrent 
Торрент: Зарегистрирован [ 2016-03-16 12:51 ] · A68929C5104CB8E59DD829F14FA7C2FE2E502855

Скачать .torrent

Скачать

12 KB

Статус: проверено
Скачан: 0 раз
Размер: 301 MB
terms.php



Показать сообщения:    

Текущее время: 08-Дек 03:14

Часовой пояс: UTC + 3


Вы не можете начинать темы
Вы не можете отвечать на сообщения
Вы не можете редактировать свои сообщения
Вы не можете удалять свои сообщения
Вы не можете голосовать в опросах
Вы не можете прикреплять файлы к сообщениям
Вы можете скачивать файлы