[DTSCD][OF] Gustav Holst - Yoel Levi - Atlanta Symphony Orchestra - The Planets - 1998 (Classic)


Статистика раздачи [Обновить пиров]
Размер:  444 MB   |    Зарегистрирован:  8 месяцев 18 дней   |    Скачан:  0 раз

Полного источника не было: Никогда

Личеров:  12  [  0 KB/s  ]   Подробная статистика пиров
 
   
 
 
 

[Цитировать]

Yoel Levi - Atlanta Symphony Orchestra / The Planets
Жанр: Classic
Страна-производитель диска: USA
Год издания: 1998
Издатель (лейбл): TELARC
Номер по каталогу: CD-80466-DTS
Страна: Israel
Аудиокодек: WavPack (*.wv)/DTS
Тип рипа: image+.cue
Битрейт аудио: DTS/44100/16
Продолжительность: 00:49:33
Источник (релизер): Emule
Наличие сканов в содержимом раздачи: да
Треклист:
TRACK 01- Mars, the Bringer of War
TRACK 02- Venus, the Bringer of Peace
TRACK 03- Mercury, the Winged Messenger
TRACK 04- Jupiter, the Bringer of Jollity
TRACK 05- Mars, the Bringer of War
TRACK 06- Venus, the Bringer of Peace
TRACK 07- Mercury, the Winged Messenger

Лог создания рипа

Exact Audio Copy V0.99 prebeta 3 from 28. July 2007
EAC extraction logfile from 13. January 2008, 14:24
Yoel Levi / Holst: The Planets
Used drive : HL-DT-STDVDRAM GSA-5163D Adapter: 3 ID: 0
Read mode : Secure
Utilize accurate stream : Yes
Defeat audio cache : Yes
Make use of C2 pointers : No
Read offset correction : 667
Overread into Lead-In and Lead-Out : No
Fill up missing offset samples with silence : Yes
Delete leading and trailing silent blocks : No
Null samples used in CRC calculations : Yes
Used interface : Installed external ASPI interface
Used output format : Internal WAV Routines
Sample format : 44.100 Hz; 16 Bit; Stereo
TOC of the extracted CD
Track | Start | Length | Start sector | End sector
---------------------------------------------------------
1 | 0:00.00 | 6:32.27 | 0 | 29426
2 | 6:32.27 | 8:36.28 | 29427 | 68154
3 | 15:08.55 | 3:53.12 | 68155 | 85641
4 | 19:01.67 | 7:53.50 | 85642 | 121166
5 | 26:55.42 | 9:09.00 | 121167 | 162341
6 | 36:04.42 | 6:10.48 | 162342 | 190139
7 | 42:15.15 | 7:18.02 | 190140 | 222991
Range status and errors
Selected range
Filename F:\Completed\DTS\Yoel Levi - Holst The Planets.wav
Peak level 25.0 %
Range quality 100.0 %
Copy CRC 054C6D86
Copy OK
No errors occurred
End of status report

Содержание индексной карты (.CUE)

REM GENRE Classical
REM DATE 1998
REM DISCID 540B9D07
REM COMMENT ExactAudioCopy v0.99pb3
CATALOG 0000000000000
PERFORMER "Yoel Levi"
TITLE "Holst: The Planets"
FILE "Yoel Levi - Holst The Planets.wv" WAVE
TRACK 01 AUDIO
TITLE "Mars, the Bringer of War"
INDEX 01 00:00:00
TRACK 02 AUDIO
TITLE "Venus, the Bringer of Peace"
INDEX 00 06:27:22
INDEX 01 06:32:27
TRACK 03 AUDIO
TITLE "Mercury, the Winged Messenger"
INDEX 00 15:03:35
INDEX 01 15:08:55
TRACK 04 AUDIO
TITLE "Jupiter, the Bringer of Jollity"
INDEX 00 18:59:30
INDEX 01 19:01:67
TRACK 05 AUDIO
TITLE "Mars, the Bringer of War"
INDEX 00 26:52:17
INDEX 01 26:55:42
TRACK 06 AUDIO
TITLE "Venus, the Bringer of Peace"
INDEX 00 35:58:70
INDEX 01 36:04:42
TRACK 07 AUDIO
TITLE "Mercury, the Winged Messenger"
INDEX 00 42:09:22
INDEX 01 42:15:15

Лог проверки качества

AUDIOCHECKER v2.0 beta (build 457) - by Dester - opdester@freemail.hu
~~~~~~~~~~~~~~~~~~~~~~~~~~~~~~~~~~
Начато: Friday, 30. 11. 2012. - 11:52.22
Найдено файлов: 1
1 -===- I:\WAV_FILES\Yoel.Levi.(1998).The.Planets.TELARC.DTS.[EAC.LOG.WV.CUE.CVRS.SonicAdventure]\Listen!\Yoel Levi - Holst The Planets.wav
Заключение: этот трек - CDDA с вероятностью 100%
Завершено: Friday, 30. 11. 2012. - 11:55.42 (Время операции: 0:03.20)
[teatrix.ru].t16726.torrent 
Торрент: Зарегистрирован [ 2016-03-16 12:53 ] · 9DBEBA2F74EBFB5AF0A772D759EACBD73376D75E

Скачать .torrent

Скачать

18 KB

Статус: проверено
Скачан: 0 раз
Размер: 444 MB
terms.php



Быстрый ответ

Имя:

      
Для отправки сообщений необходимо включить JavaScript
Показать сообщения:    

Текущее время: 03-Дек 14:39

Часовой пояс: UTC + 3


Вы можете начинать темы
Вы можете отвечать на сообщения
Вы не можете редактировать свои сообщения
Вы не можете удалять свои сообщения
Вы не можете голосовать в опросах
Вы не можете прикреплять файлы к сообщениям
Вы можете скачивать файлы