Гоген на Таити и Маркизских островах / Gauguin a Tahiti et aux Marquises / Gauguin in Tahiti und auf den Marquesas (Ришар Диндо / Richard Dindo) [2009, документальный, биография, DVB] Original (Fre) + Sub (ru hard, Маньен, Eclair Group)


Статистика раздачи [Обновить пиров]
Размер:  1.13 GB   |    Зарегистрирован:  8 месяцев 22 дня   |    Скачан:  0 раз

Полного источника не было: Никогда

Личеров:  3  [  0 KB/s  ]   Подробная статистика пиров
 
   
 
 
 

[Цитировать]

Гоген на Таити и Маркизских островах
Gauguin à Tahiti et aux Marquises / Gauguin in Tahiti und auf den Marquesas- Год выпуска: 2009
Страна: Франция, Швейцария
Жанр: документальный, биография
Продолжительность: 00:53:06
Перевод: Субтитры (перевод Е. Маньен, Éclair Group)
Русские субтитры: есть
Режиссер: Ришар Диндо / Richard Dindo
Голос за кадром: Наташа Кучумов / Natacha Koutchoumov, Мишель Сюбор / Michel Subor
Описание: Чтобы стать художником Поль Гоген бросил работу на бирже. В 1885 году, в возрасте 37 лет, он нарисовал свой первый автопортрет. Он учился живописи в музеях, где изучал полотна великих мастеров, и у друзей-импрессионистов. Из обеспеченного человека Гоген в одночасье превратился в нищего. Жена-датчанка забрала пятерых детей и вернулась в Копенгаген. Гоген невыносимо страдал от нехватки денег и бездушия индустриального общества, несущего, как он считал, гибель миру. Жизнь в городах казалась ему абсурдной. Начиная с 1890 года, он стал мечтать о Таити, о возможности начать новую жизнь.
"Я принял твердое решение. Я поеду на Таити, небольшой островок в Океании, где еще возможно жить без денег. Сегодняшний Запад насквозь прогнил. Будущее поколение ждет ужасная эпоха: "золотой век". В Европе все прогнило, и люди, и искусство. Тогда как таитянам, счастливым обитателям затерянного островного рая, ведомы лишь радость и наслаждение. Жизнь их проходит в песнях и любви. Я отправляюсь на Таити и надеюсь прожить там остаток жизни". (из предисловия к фильму)
Доп. информация: Собственная запись со спутника (канал TV5MONDE, пакет НТВ+).
Участник: Cinema du Reel Film Festival 2010; FIFA Festival international du film sur l'art Montréal 2010; FIDOCS Festival Internacional Documentales Santiago de Chile 2011; Documenta Madrid 12 IX Festival Internacional de Documentales de Madrid 2012.
Информация: http://www.imdb.com/title/tt1653859/
Качество: DVB
Формат: MPG
Видео кодек: MPEG2
Аудио кодек: MP2
Видео: MPEG Video 2, 720x576@1024x576 (16:9), 25 fps, ~2790 kbps avg
Аудио: Французский (48 kHz, MPEG Audio 2, 2 ch, ~192.00 kbps avg)

MediaInfo

Полное имя                               : H:\My Torrents\[apreder]Gauguin_a_Tahiti_et_aux_Marquises(2009)DVB.mpg
Формат : MPEG-PS
Размер файла : 1,13 Гбайт
Продолжительность : 53 м.
Режим общего битрейта : Переменный
Общий поток : 3043 Кбит/сек
Видео
Идентификатор : 224 (0xE0)
Формат : MPEG Video
Версия формата : Version 2
Профиль формата : Main@Main
Параметр BVOP формата : Да
Параметр матрицы формата : Выборочная
Параметр GOP формата : M=3, N=24
Продолжительность : 53 м.
Вид битрейта : Переменный
Битрейт : 2790 Кбит/сек
Ширина : 720 пикселей
Высота : 576 пикселей
Соотношение сторон : 16:9
Частота кадров : 25,000 кадров/сек
Стандарт вещания : PAL
Цветовое пространство : YUV
Субдискретизация насыщенности : 4:2:0
Битовая глубина : 8 бит
Тип развёртки : Прогрессивная
Порядок развёртки : Верхнее поле первое
Метод сжатия : С потерями
Бит/(Пиксели*Кадры) : 0.269
Размер потока : 1,03 Гбайт (92%)
Аудио
Идентификатор : 192 (0xC0)
Формат : MPEG Audio
Версия формата : Version 1
Профиль формата : Layer 2
Продолжительность : 53 м.
Вид битрейта : Постоянный
Битрейт : 192 Кбит/сек
Каналы : 2 канала
Частота : 48,0 КГц
Метод сжатия : С потерями
Размер потока : 72,9 Мбайт (6%)

Скриншоты


Скриншоты анаморфированные


-486/468√
[teatrix.ru].t16727.torrent 
Торрент: Зарегистрирован [ 2016-03-16 12:45 ] · 3996A633B62E4C8F6E55EF264CE57EFC5FCBF049

Скачать .torrent

Скачать

12 KB

Статус: проверено
Скачан: 0 раз
Размер: 1.13 GB
terms.php



Быстрый ответ

Имя:

      
Для отправки сообщений необходимо включить JavaScript
Показать сообщения:    

Текущее время: 07-Дек 13:37

Часовой пояс: UTC + 3


Вы можете начинать темы
Вы можете отвечать на сообщения
Вы не можете редактировать свои сообщения
Вы не можете удалять свои сообщения
Вы не можете голосовать в опросах
Вы не можете прикреплять файлы к сообщениям
Вы можете скачивать файлы