О судьбе Репертуарного театра России (Студия православных фильмов во имя Апостола и Евангелиста Иоанна Богослова) [2012 г., Познавательно-патриотический, WebRip]


Статистика раздачи [Обновить пиров]
Размер:  302 MB   |    Зарегистрирован:  8 месяцев 16 дней   |    Скачан:  0 раз

Полного источника не было: Никогда

Личеров:  3  [  0 KB/s  ]   Подробная статистика пиров
 
   
 
 
 

[Цитировать]

О судьбе Репертуарного театра России
Год выпуска: 2012
Страна: Россия
Жанр: Познавательно-патриотический
Продолжительность: 00:27:56
Перевод: Не требуется
Русские субтитры: нет
Режиссер: Студия православных фильмов во имя Апостола и Евангелиста Иоанна Богослова
Описание: Важнейшие фрагменты конференции, посвященной псевдокультурному загаживанию репертуара одного из ведущих театров, содержат выступления Ирины Медведевой, Елены Зайковой и Татьяны Боровиковой.
Качество: WebRip
Формат: AVI
Видео кодек: XviD
Аудио кодек: MP3
Видео: 1372 Кбит/сек, 640*480 (4:3), в 25,000 кадров/сек, MPEG-4 Visual (XviD) (Simple@L3)
Аудио: Русский, 128 Кбит/сек, 44,1 КГц, 2 канала, MPEG Audio (MP3) (Version 1) (Layer 3) (Joint stereo / MS Stereo)

Media Info

Формат                                   : AVI
Формат/Информация : Audio Video Interleave
Размер файла : 302 Мбайт
Продолжительность : 27 м.
Общий поток : 1512 Кбит/сек
Видео
Идентификатор : 0
Формат : MPEG-4 Visual
Профиль формата : Simple@L3
Параметр BVOP формата : Нет
Параметр QPel формата : Нет
Параметр GMC формата : Без точки перехода
Параметр матрицы формата : Default (H.263)
Идентификатор кодека : XVID
Идентификатор кодека/Подсказка : XviD
Продолжительность : 27 м.
Битрейт : 1372 Кбит/сек
Ширина : 640 пикселей
Высота : 480 пикселей
Соотношение сторон : 4:3
Частота кадров : 25,000 кадров/сек
Цветовое пространство : YUV
Субдискретизация насыщенности : 4:2:0
Битовая глубина : 8 бит
Тип развёртки : Прогрессивная
Метод сжатия : С потерями
Бит/(Пиксели*Кадры) : 0.179
Размер потока : 274 Мбайт (91%)
Библиотека кодирования : XviD 1.2.1 (UTC 2008-12-04)
Аудио
Идентификатор : 1
Формат : MPEG Audio
Версия формата : Version 1
Профиль формата : Layer 3
Режим : Joint stereo
Расширение режима : MS Stereo
Идентификатор кодека : 55
Идентификатор кодека/Подсказка : MP3
Продолжительность : 18 м.
Продолжительность оригинала : 27 м.
Вид битрейта : Постоянный
Битрейт : 128 Кбит/сек
Каналы : 2 канала
Частота : 44,1 КГц
Метод сжатия : С потерями
Размер потока : 25,6 Мбайт (8%)
Выравнивание : Соединение по промежуткам
Продолжительность промежутка : 26 мс. (0,65 видеокадр)
Библиотека кодирования : LAME3.98.

Скриншоты

[teatrix.ru].t16740.torrent 
Торрент: Зарегистрирован [ 2016-03-16 23:59 ] · D9501C5FE54F3977F308FA70EC8D2C31C0C878BB

Скачать .torrent

Скачать

6 KB

Статус: проверено
Скачан: 0 раз
Размер: 302 MB
terms.php



Быстрый ответ

Имя:

      
Для отправки сообщений необходимо включить JavaScript
Показать сообщения:    

Текущее время: 02-Дек 21:14

Часовой пояс: UTC + 3


Вы можете начинать темы
Вы можете отвечать на сообщения
Вы не можете редактировать свои сообщения
Вы не можете удалять свои сообщения
Вы не можете голосовать в опросах
Вы не можете прикреплять файлы к сообщениям
Вы можете скачивать файлы