Марина Голуб. Не привыкай к дождю ... [2012, Документальный, SATRip]


Статистика раздачи [Обновить пиров]
Размер:  561 MB   |    Зарегистрирован:  8 месяцев 24 дня   |    Скачан:  0 раз

Полного источника не было: Никогда

Личеров:  3  [  0 KB/s  ]   Подробная статистика пиров
 
   
 
 
 

[Цитировать]

Марина Голуб. Не привыкай к дождю ...
Год выпуска: 2012
Страна: Россия
Жанр: Документальный
Продолжительность: 00:47:50
Перевод: Не требуется
В ролях: дочь Настя Голуб, папа Григорий Ефимович Голуб, Евгений Миронов, Кирилл Серебренников, Александр Балуев, Олег Табаков, Павел Каплевич, Андрей Миронов-младший, Павел Чухрай.
Описание: Этот фильм - посвящение памяти Марины Голуб. 8 декабря ей исполнилось бы 55 лет.
Фильм сделали ее друзья. И Марина здесь будет такой, какой ее мало кто знал.
Качество: SATRip
Формат: AVI
Видео кодек: DivX
Аудио кодек: MP3
Видео: DivX 5 720x400 25.00fps 1501kbps
Аудио: MPEG Audio Layer 3 48000Hz stereo 128kbps

MI

Общее
Полное имя : E:\Downloads\55\Marina.Golub.Ne.privykaj.k.dozhdju.SATRip.avi
Формат : AVI
Формат/Информация : Audio Video Interleave
Размер файла : 561 Мбайт
Продолжительность : 47 м.
Общий поток : 1638 Кбит/сек
Библиотека кодирования : VirtualDub build 32842/release
Видео
Идентификатор : 0
Формат : MPEG-4 Visual
Параметр BVOP формата : 1
Параметр QPel формата : Нет
Параметр GMC формата : Без точки перехода
Параметр матрицы формата : Default (H.263)
Режим смешивания : Сжатый битовый поток
Идентификатор кодека : DX50
Идентификатор кодека/Подсказка : DivX 5
Продолжительность : 47 м.
Битрейт : 1501 Кбит/сек
Ширина : 720 пикс.
Высота : 400 пикс.
Соотношение сторон : 16:9
Частота кадров : 25,000 кадр/сек
Цветовое пространство : YUV
Подвыборка цветности : 4:2:0
Битовая глубина : 8 бит
Тип развёртки : Прогрессивная
Метод сжатия : С потерями
Бит/(Пиксели*Кадры) : 0.208
Размер потока : 513 Мбайт (92%)
Библиотека кодирования : DivX 6.8.5 (UTC 2009-08-20)
Аудио
Идентификатор : 1
Формат : MPEG Audio
Версия формата : Version 1
Профиль формата : Layer 3
Режим : Joint stereo
Расширение режима : MS Stereo
Идентификатор кодека : 55
Идентификатор кодека/Подсказка : MP3
Продолжительность : 47 м.
Вид битрейта : Постоянный
Битрейт : 128 Кбит/сек
Каналы : 2 канала
Частота : 48,0 КГц
Метод сжатия : С потерями
Размер потока : 43,8 Мбайт (8%)
Выравнивание : Разделение по промежуткам
Продолжительность промежутка : 40 мс. (1,00 видеокадр)
Время предзагрузки промежутка : 500 ms
Релиз: РиперАм

Скриншоты

[teatrix.ru].t16748.torrent 
Торрент: Зарегистрирован [ 2016-03-16 23:59 ] · 7F9710A85FED7A14E2B73CAE69E0F138911180A2

Скачать .torrent

Скачать

11 KB

Статус: проверено
Скачан: 0 раз
Размер: 561 MB
terms.php



Показать сообщения:    

Текущее время: 10-Дек 09:59

Часовой пояс: UTC + 3


Вы не можете начинать темы
Вы не можете отвечать на сообщения
Вы не можете редактировать свои сообщения
Вы не можете удалять свои сообщения
Вы не можете голосовать в опросах
Вы не можете прикреплять файлы к сообщениям
Вы можете скачивать файлы