Леонард Бернстайн. Размышления / Leonard Bernstein: Reflections (Питер Розен / Peter Rosen) [1978, документальный, фильм-портрет, DVB] VO (Видеопродакшн)


Статистика раздачи [Обновить пиров]
Размер:  1.19 GB   |    Зарегистрирован:  8 месяцев 24 дня   |    Скачан:  0 раз

Полного источника не было: Никогда

Личеров:  3  [  0 KB/s  ]   Подробная статистика пиров
 
   
 
 
 

[Цитировать]

Леонард Бернстайн. Размышления
Leonard Bernstein: Reflections- Год выпуска: 1978
Страна: США
Жанр: документальный, фильм-портрет
Продолжительность: 00:50:41
Перевод: Профессиональный (одноголосый) (компания "Видеопродакшн")
Русские субтитры: нет
Режиссер: Питер Розен / Peter Rosen
Описание: Увлекательный рассказ Леонарда Бернстайна о своей жизни и творчестве.
Леонард Бернстайн (1918-1990) - американский дирижёр, композитор, пианист, музыкальный писатель, педагог. Деятельность Л. Бернстайна поражает прежде всего своим разнообразием: талантливый композитор, известный всему миру как автор мюзикла "Вестсайдская история", крупнейший дирижер XX в. (его называют в числе наиболее достойных преемников Г. Караяна), яркий музыкальный писатель и лектор, умеющий найти общий язык с широчайшим кругом слушателей, пианист и педагог.
Доп. информация: запись со спутника (канал "Кто есть кто").
Награды: 1-й приз Miami International Film Festival 1979; приз CINE Golden Eagle 1979; приз Silver Hugo - Chicago International Film Festival 1979.
Информация: http://www.imdb.com/title/tt1361824/
Качество: DVB
Формат: MPG
Видео кодек: MPEG2
Аудио кодек: MP2
Видео: MPEG Video 2, 704x576@768x576 (4:3), 25 fps, ~3096 kbps avg
Аудио: 48 kHz, MPEG Audio 2, 2 ch, ~192.00 kbps avg

MediaInfo

Полное имя                               : H:\My Torrents\[apreder]Leonard_Bernstein_Reflections(1978)DVB.mpg
Формат : MPEG-PS
Размер файла : 1,19 Гбайт
Продолжительность : 50 м.
Режим общего битрейта : Переменный
Общий поток : 3355 Кбит/сек
Видео
Идентификатор : 224 (0xE0)
Формат : MPEG Video
Версия формата : Version 2
Профиль формата : Main@Main
Параметр BVOP формата : Да
Параметр матрицы формата : Выборочная
Параметр GOP формата : M=3, N=24
Продолжительность : 50 м.
Вид битрейта : Переменный
Битрейт : 3096 Кбит/сек
Ширина : 704 пикселя
Высота : 576 пикселей
Соотношение сторон : 4:3
Частота кадров : 25,000 кадров/сек
Стандарт вещания : PAL
Цветовое пространство : YUV
Субдискретизация насыщенности : 4:2:0
Битовая глубина : 8 бит
Тип развёртки : Чересстрочная
Порядок развёртки : Верхнее поле первое
Метод сжатия : С потерями
Бит/(Пиксели*Кадры) : 0.305
Размер потока : 1,10 Гбайт (92%)
Аудио
Идентификатор : 192 (0xC0)
Формат : MPEG Audio
Версия формата : Version 1
Профиль формата : Layer 2
Продолжительность : 50 м.
Вид битрейта : Постоянный
Битрейт : 192 Кбит/сек
Каналы : 2 канала
Частота : 48,0 КГц
Метод сжатия : С потерями
Размер потока : 69,6 Мбайт (6%)

Скриншоты


Скриншоты анаморфированные


-493/475√
[teatrix.ru].t16750.torrent 
Торрент: Зарегистрирован [ 2016-03-17 00:02 ] · 1598ED25499ED061A6CB20ED8B2829A1FE92510E

Скачать .torrent

Скачать

12 KB

Статус: проверено
Скачан: 0 раз
Размер: 1.19 GB
terms.php



Быстрый ответ

Имя:

      
Для отправки сообщений необходимо включить JavaScript
Показать сообщения:    

Текущее время: 10-Дек 04:11

Часовой пояс: UTC + 3


Вы можете начинать темы
Вы можете отвечать на сообщения
Вы не можете редактировать свои сообщения
Вы не можете удалять свои сообщения
Вы не можете голосовать в опросах
Вы не можете прикреплять файлы к сообщениям
Вы можете скачивать файлы