Острова - Александр Татарский [2010, Документальный, DVB]


Статистика раздачи [Обновить пиров]
Размер:  614 MB   |    Зарегистрирован:  8 месяцев 22 дня   |    Скачан:  0 раз

Полного источника не было: Никогда

Личеров:  3  [  0 KB/s  ]   Подробная статистика пиров
 
   
 
 
 

[Цитировать]

Острова - Александр Татарский
Год выпуска: 2010
Страна: Россия, ТК "Культура"
Жанр: Документальный
Продолжительность: 00:39:23
Перевод: Не требуется
Русские субтитры: нет
Режиссер: нет данных
Описание: Фильм о мультипликаторе Александре Татарском из цикла Острова, идущем на телеканале Культура.
Качество: DVB
Формат: TS
Видео кодек: H.264
Аудио кодек: MP2
Видео: AVC (H264) 720x576 25.00fps 1 941 Kbps
Аудио: MPEG Audio Layer 2 48000Hz stereo 128 Kbps

Скриншоты

MediaInfo

General
ID : 1 (0x1)
Complete name : G:\Торрент\Острова\Острова - Александр Татарский - 2010\Острова - Александр Татарский - 2010.ts
Format : MPEG-TS
File size : 614 MiB
Duration : 39mn 23s
Overall bit rate : 2 178 Kbps
Video
ID : 602 (0x25A)
Menu ID : 6 (0x6)
Format : AVC
Format/Info : Advanced Video Codec
Format version : Version 2
Format profile : Main@L3.0
Format settings, CABAC : Yes
Format settings, ReFrames : 4 frames
Codec ID : 27
Duration : 39mn 23s
Bit rate : 1 941 Kbps
Maximum bit rate : 2 169 Kbps
Width : 720 pixels
Height : 576 pixels
Display aspect ratio : 4:3
Frame rate : 25.000 fps
Standard : PAL
Color space : YUV
Chroma subsampling : 4:2:0
Bit depth : 8 bits
Scan type : Interlaced
Scan order : Top Field First
Bits/(Pixel*Frame) : 0.187
Stream size : 547 MiB (89%)
Color primaries : BT.470-6 System B, BT.470-6 System G, BT.601-6 625, BT.1358 625, BT.1700 625 PAL, BT.1700 625 SECAM
Transfer characteristics : BT.470-6 System B, BT.470-6 System G
Matrix coefficients : BT.470-6 System B, BT.470-6 System G, BT.601-6 625, BT.1358 625, BT.1700 625 PAL, BT.1700 625 SECAM, IEC 61966-2-4 601
Audio
ID : 603 (0x25B)
Menu ID : 6 (0x6)
Format : MPEG Audio
Format version : Version 1
Format profile : Layer 2
Codec ID : 4
Duration : 39mn 23s
Bit rate mode : Constant
Bit rate : 128 Kbps
Maximum bit rate : 144 Kbps
Channel(s) : 2 channels
Sampling rate : 48.0 KHz
Compression mode : Lossy
Delay relative to video : 115ms
Stream size : 36.1 MiB (6%)
Language : Russian
Menu
ID : 601 (0x259)
Menu ID : 6 (0x6)
Duration : 39mn 23s
List : 602 (0x25A) (AVC) / 603 (0x25B) (MPEG Audio, Russian)
Language : / Russian
Maximum bit rate : 2486000
[teatrix.ru].t16755.torrent 
Торрент: Зарегистрирован [ 2016-03-17 00:01 ] · 6339D602C84A7A866ECB5F425BB8E839BF9D0631

Скачать .torrent

Скачать

12 KB

Статус: проверено
Скачан: 0 раз
Размер: 614 MB
terms.php



Показать сообщения:    

Текущее время: 08-Дек 08:57

Часовой пояс: UTC + 3


Вы не можете начинать темы
Вы не можете отвечать на сообщения
Вы не можете редактировать свои сообщения
Вы не можете удалять свои сообщения
Вы не можете голосовать в опросах
Вы не можете прикреплять файлы к сообщениям
Вы можете скачивать файлы