Джастин Бибер: Никогда не говори никогда / Justin Bieber: Never Say Never (Джон М. Чу / Jon Chu) [2011, США, документальный, DVB] MVO "Пифагор"


Статистика раздачи [Обновить пиров]
Размер:  2.15 GB   |    Зарегистрирован:  8 месяцев 21 день   |    Скачан:  1 раз

Полного источника не было: 2 месяца 3 дня

Личеров:  3  [  0 KB/s  ]   Подробная статистика пиров
 
   
 
 
 

[Цитировать]

Джастин Бибер: Никогда не говори никогда / Justin Bieber: Never Say Never
Страна: США
Жанр: документальный
Год выпуска: 2011
Продолжительность: 01:40:56
Перевод: Профессиональный (многоголосый закадровый)
Cубтитры: нет
Режиссер: Джон М. Чу / Jon Chu
В ролях: Джастин Бибер, Boys II Men, Майли Сайрус, Шон Кингстон, Лудакрис, Джейден Смит, Ашер, Дайан Дэйл, Брюс Дэйл, Райан Гуд
Описание: Фильм, посвящённый поп-звезде Джастину Биберу, рассказывает о 10 днях из его жизни, которые предшествуют выступлению в Madison Square Garden. Билеты на этот концерт, прошедший 31 августа 2010 года и считающийся на тот момент самым крупным в его карьере, были распроданы в течение первых 22 минут продаж.
Несмотря на то, что в фильме нет интервью с самим Джастином, там присутствуют рассказы людей из его окружения. В нём также показано посещение Бибером родного города во время его тура по Канаде. Тогда он сорвал голос во время отдыха со своими старыми друзьями. В результате выступление в Сиракьюсе пришлось отложить. Ему было запрещено несколько дней разговаривать, чтоб таким образом голос достаточно восстановился к следующему концерту в Madison Square Garden.
Также в фильме присутствуют истории и старые видео из детства Бибера
Качество видео: DVB
Формат видео: TS
Видео: 720x576 (4:3) @ 786x576, 25.000 fps, AVC, ~2630 Kbps, 0.254 bits/pixel
Аудио: Русский, 48.0 KHz, MPEG-1 Audio layer 2, 2 ch, 256 Kbps

MediaInfo

General
ID : 1 (0x1)
Complete name : D:\Justin Bieber Never Say Never (2011).ts
Format : MPEG-TS
File size : 2.15 GiB
Duration : 1h 40mn
Overall bit rate : 3 055 Kbps
Video
ID : 37 (0x25)
Menu ID : 1 (0x1)
Format : AVC
Format/Info : Advanced Video Codec
Format profile : High@L3.0
Format settings, CABAC : Yes
Format settings, ReFrames : 3 frames
Codec ID : 27
Duration : 1h 40mn
Bit rate : 2 645 Kbps
Width : 720 pixels
Height : 576 pixels
Display aspect ratio : 4:3
Frame rate : 25.000 fps
Standard : Component
Color space : YUV
Chroma subsampling : 4:2:0
Bit depth : 8 bits
Scan type : Interlaced
Scan order : Top Field First
Bits/(Pixel*Frame) : 0.255
Stream size : 1.87 GiB (87%)
Color primaries : BT.470-6 System B, BT.470-6 System G, BT.601-6 625, BT.1358 625, BT.1700 625 PAL, BT.1700 625 SECAM
Transfer characteristics : BT.470-6 System B, BT.470-6 System G
Matrix coefficients : BT.470-6 System B, BT.470-6 System G, BT.601-6 625, BT.1358 625, BT.1700 625 PAL, BT.1700 625 SECAM, IEC 61966-2-4 601
Audio
ID : 32 (0x20)
Menu ID : 1 (0x1)
Format : MPEG Audio
Format version : Version 1
Format profile : Layer 2
Codec ID : 3
Duration : 1h 40mn
Bit rate mode : Constant
Bit rate : 256 Kbps
Channel(s) : 2 channels
Sampling rate : 48.0 KHz
Compression mode : Lossy
Stream size : 185 MiB (8%)
Language : English

Скриншоты

[teatrix.ru].t16759.torrent 
Торрент: Зарегистрирован [ 2016-03-17 00:01 ] · F12BD9AAB2C0A996462FADE65D50638483DA3A6C

Скачать .torrent

Скачать

11 KB

Статус: проверено
Скачан: 1 раз
Размер: 2.15 GB
terms.php



Быстрый ответ

Имя:

      
Для отправки сообщений необходимо включить JavaScript
Показать сообщения:    

Текущее время: 07-Дек 13:39

Часовой пояс: UTC + 3


Вы можете начинать темы
Вы можете отвечать на сообщения
Вы не можете редактировать свои сообщения
Вы не можете удалять свои сообщения
Вы не можете голосовать в опросах
Вы не можете прикреплять файлы к сообщениям
Вы можете скачивать файлы