"Джентльмены удачи". 40 лет спустя (Всеволод Тарасов) [2012, Документальный, SATRip]


Статистика раздачи [Обновить пиров]
Размер:  575 MB   |    Зарегистрирован:  8 месяцев 24 дня   |    Скачан:  0 раз
Сидов:  3  [  0 KB/s  ]   Личеров:  3  [  0 KB/s  ]   Подробная статистика пиров
 
   
 
 

[Цитировать]

"Джентльмены удачи". 40 лет спустя -Год выпуска: 2012
Страна: Россия
Жанр: Документальный
Продолжительность: 00:43:45
Перевод: Не требуется
Режиссер: Всеволод Тарасов-Описание: 40 лет назад в СССР вышел художественный фильм "Джентльмены удачи", который за год проката собрал 65 миллионов зрителей и в 20-кратном размере окупил затраты на свое производство. Это был настоящий рекорд советского кинопроката.
Ставшую легендой комедию по сценарию Виктории Токаревой и Георгия Данелии снял режиссер Александр Серый. О его нелегкой судьбе, а также о малоизвестных фактах истории создания и съемок этой картины рассказывает документальный фильм "Джентльмены удачи". 40 лет спустя".
В фильме приняли участие создатели бессмертного шедевра советского кино: сценарист Виктория Токарева, композитор Геннадий Гладков, актер Олег Видов и другие. Кроме того, картина расскажет о только что законченной продюсерской работе Тимура Бекмамбетова "Джентльмены, удачи!" - ремейке, а точнее новейшей, современной версии сюжета знаменитой комедии, которая через 40 лет обретает новую жизнь в новой стране.-Качество: SATRip
Формат: AVI
Видео кодек: XviD
Аудио кодек: MP3
Видео: 704x528 (1.33:1), 25 fps, XviD build 63 ~1699 kbps avg
Аудио: 48 kHz, MPEG Layer 3, 2 ch, ~128.00 kbps avg

MI

Общее
Полное имя : D:\Раздачи\Dzhentl'meny.udachi.40.let.spustja.2012.SATRip.avi
Формат : AVI
Формат/Информация : Audio Video Interleave
Размер файла : 575 Мбайт
Продолжительность : 43 м.
Общий поток : 1837 Кбит/сек
Программа кодирования : VirtualDubMod 1.5.10.3 | www.virtualdub-fr.org || (build 2550/release)
Библиотека кодирования : VirtualDubMod build 2550/release
Видео
Идентификатор : 0
Формат : MPEG-4 Visual
Профиль формата : Advanced Simple@L5
Параметр BVOP формата : 2
Параметр QPel формата : Нет
Параметр GMC формата : Без точки перехода
Параметр матрицы формата : Default (H.263)
Идентификатор кодека : XVID
Идентификатор кодека/Подсказка : XviD
Продолжительность : 43 м.
Битрейт : 1700 Кбит/сек
Ширина : 704 пикселя
Высота : 528 пикселей
Соотношение сторон : 4:3
Частота кадров : 25,000 кадров/сек
Цветовое пространство : YUV
Субдискретизация насыщенности : 4:2:0
Битовая глубина : 8 бит
Тип развёртки : Прогрессивная
Метод сжатия : С потерями
Бит/(Пиксели*Кадры) : 0.183
Размер потока : 532 Мбайт (93%)
Библиотека кодирования : XviD 63
Аудио
Идентификатор : 1
Формат : MPEG Audio
Версия формата : Version 1
Профиль формата : Layer 3
Режим : Joint stereo
Расширение режима : MS Stereo
Идентификатор кодека : 55
Идентификатор кодека/Подсказка : MP3
Продолжительность : 43 м.
Вид битрейта : Постоянный
Битрейт : 128 Кбит/сек
Каналы : 2 канала
Частота : 48,0 КГц
Метод сжатия : С потерями
Размер потока : 40,1 Мбайт (7%)
Выравнивание : Соединение по промежуткам
Продолжительность промежутка : 40 мс. (1,00 видеокадр)
Время предзагрузки промежутка : 504 мс.
Библиотека кодирования : LAME3.98r
Настройки программы : -m j -V 4 -q 0 -lowpass 17 -b 128

Скриншоты

[teatrix.ru].t16760.torrent 
Торрент: Зарегистрирован [ 2016-03-17 00:01 ] · E7B7D5F6E24BA44128DC9524C4C0BE8A9A713D92

Скачать .torrent

Скачать

12 KB

Статус: проверено
Скачан: 0 раз
Размер: 575 MB
terms.php



Показать сообщения:    

Текущее время: 10-Дек 11:57

Часовой пояс: UTC + 3


Вы не можете начинать темы
Вы не можете отвечать на сообщения
Вы не можете редактировать свои сообщения
Вы не можете удалять свои сообщения
Вы не можете голосовать в опросах
Вы не можете прикреплять файлы к сообщениям
Вы можете скачивать файлы