Джентльмены удачи. 40 лет спустя (Всеволод Тарасов) [2012, Документальный, DVB]


Статистика раздачи [Обновить пиров]
Размер:  1.62 GB   |    Зарегистрирован:  8 месяцев 21 день   |    Скачан:  0 раз

Полного источника не было: Никогда

Личеров:  3  [  0 KB/s  ]   Подробная статистика пиров
 
   
 
 
 

[Цитировать]

"Джентльмены удачи". 40 лет спустя
Год выпуска: 2012
Страна: Россия
Жанр: Документальный
Продолжительность: 00:43:52
Перевод: Не требуется
Русские субтитры: нет
Режиссер: Всеволод Тарасов
Описание: 40 лет назад в СССР вышел художественный фильм "Джентльмены удачи", который за год проката собрал 65 миллионов зрителей и в 20-кратном размере окупил затраты на свое производство. Это был настоящий рекорд советского кинопроката. Ставшую легендой комедию по сценарию Виктории Токаревой и Георгия Данелии снял режиссер Александр Серый. О его нелегкой судьбе, а также о малоизвестных фактах истории создания и съемок этой картины рассказывает документальный фильм "Джентльмены удачи". 40 лет спустя". В фильме приняли участие создатели бессмертного шедевра советского кино: сценарист Виктория Токарева, композитор Геннадий Гладков, актер Олег Видов и другие. Кроме того, картина расскажет о только что законченной продюсерской работе Тимура Бекмамбетова "Джентльмены, удачи!" - ремейке, а точнее новейшей, современной версии сюжета знаменитой комедии, которая через 40 лет обретает новую жизнь в новой стране.
Доп. информация: Релиз -

Рип чистый. Без посторонних надписей. Выкладывается как есть.
Качество: DVB
Формат: MPG
Видео кодек: MPG2
Аудио кодек: MP2
Видео: 720x576 @ 768x576 (4:3) 25.00fps 5 017 Kbps, 0.484 bit/pixel
Аудио: MPEG Audio 48000Hz stereo 192 Кбит/сек

Скриншоты

Скринлист

MI

General
Complete name : J:\ВЫКЛАДКА\DVB\01 - ДОКУМЕНТАЛЬНОЕ\Джентльмены удачи. 40 лет спустя (Документальный, 2012) (MYDIMKA).mpg
Format : MPEG-PS
File size : 1.62 GiB
Duration : 43mn 52s
Overall bit rate mode : Variable
Overall bit rate : 5 287 Kbps
Video
ID : 224 (0xE0)
Format : MPEG Video
Format version : Version 2
Format profile : Main@Main
Format settings, BVOP : Yes
Format settings, Matrix : Custom
Duration : 43mn 52s
Bit rate mode : Variable
Bit rate : 5 017 Kbps
Width : 720 pixels
Height : 576 pixels
Display aspect ratio : 4:3
Frame rate : 25.000 fps
Standard : PAL
Color space : YUV
Chroma subsampling : 4:2:0
Bit depth : 8 bits
Scan type : Interlaced
Scan order : Top Field First
Compression mode : Lossy
Bits/(Pixel*Frame) : 0.484
Stream size : 1.53 GiB (94%)
Audio
ID : 192 (0xC0)
Format : MPEG Audio
Format version : Version 1
Format profile : Layer 2
Duration : 43mn 52s
Bit rate mode : Constant
Bit rate : 192 Kbps
Channel(s) : 2 channels
Sampling rate : 48.0 KHz
Compression mode : Lossy
Delay relative to video : -24ms
Stream size : 60.3 MiB (4%)
[teatrix.ru].t16763.torrent 
Торрент: Зарегистрирован [ 2016-03-17 00:02 ] · EC252A83934F873F74C0E752F1DCC47BD7F0C884

Скачать .torrent

Скачать

17 KB

Статус: проверено
Скачан: 0 раз
Размер: 1.62 GB
terms.php



Показать сообщения:    

Текущее время: 07-Дек 17:25

Часовой пояс: UTC + 3


Вы не можете начинать темы
Вы не можете отвечать на сообщения
Вы не можете редактировать свои сообщения
Вы не можете удалять свои сообщения
Вы не можете голосовать в опросах
Вы не можете прикреплять файлы к сообщениям
Вы можете скачивать файлы