Сокровища Пруссии (Андрей Куренков) [2012, Документальный, DVB]


Статистика раздачи [Обновить пиров]
Размер:  607 MB   |    Зарегистрирован:  8 месяцев 18 дней   |    Скачан:  0 раз

Полного источника не было: Никогда

Личеров:  3  [  0 KB/s  ]   Подробная статистика пиров
 
   
 
 
 

[Цитировать]

Сокровища Пруссии
Год выпуска: 2012
Страна: Россия, ТК "Культура"
Жанр: Документальный
Продолжительность: 00:38:41
Перевод: Не требуется
Русские субтитры: нет
Режиссер: Андрей Куренков
Описание: Знаменитые форты Калининграда скрывают немало тайн. Недаром этот город среди любителей старины и ученых-археологов называют "островом сокровищ". Во времена Третьего Рейха со всех оккупированных территорий текли сюда потоки культурных ценностей. Восточная Пруссия стала огромным музейным складом фашистов.
Но даже среди этого роскошества случайно найденные в 90-е годы предметы стали сенсацией у антикваров и ученых. Однако никто из специалистов пока не догадывался, что удалось напасть на след знаменитой коллекции "Пруссия" - колоссального собрания предметов быта древних племен, населявших некогда огромную территорию, - которая до этого считалась безвозвратно утраченной…
Фильм об истории коллекции и ее поисках. Участвуют: Константин Скворцов - старший научный сотрудник Калининградского музея, Авенир Овсянов - краевед, историк, Юрий Костяшов - доктор исторических наук, Евгений Калашников - начальник научного отдела НПЦ по охране памятников Калининградской области и другие.
Качество: DVB
Формат: TS
Видео кодек: H.264
Аудио кодек: MP2
Видео: AVC (H264) 720x576 25.00fps 1 955 Kbps
Аудио: MPEG Audio Layer 2 48000Hz stereo 128 Kbps

MediaInfo

General
ID : 1 (0x1)
Complete name : G:\Торрент\Культура\Сокровища Пруссии - 2012\Сокровища Пруссии - 2012.ts
Format : MPEG-TS
File size : 607 MiB
Duration : 38mn 41s
Overall bit rate : 2 193 Kbps
Video
ID : 602 (0x25A)
Menu ID : 6 (0x6)
Format : AVC
Format/Info : Advanced Video Codec
Format version : Version 2
Format profile : Main@L3.0
Format settings, CABAC : Yes
Format settings, ReFrames : 4 frames
Codec ID : 27
Duration : 38mn 41s
Bit rate : 1 955 Kbps
Maximum bit rate : 2 169 Kbps
Width : 720 pixels
Height : 576 pixels
Display aspect ratio : 4:3
Frame rate : 25.000 fps
Standard : PAL
Color space : YUV
Chroma subsampling : 4:2:0
Bit depth : 8 bits
Scan type : Interlaced
Scan order : Top Field First
Bits/(Pixel*Frame) : 0.189
Stream size : 541 MiB (89%)
Color primaries : BT.470-6 System B, BT.470-6 System G, BT.601-6 625, BT.1358 625, BT.1700 625 PAL, BT.1700 625 SECAM
Transfer characteristics : BT.470-6 System B, BT.470-6 System G
Matrix coefficients : BT.470-6 System B, BT.470-6 System G, BT.601-6 625, BT.1358 625, BT.1700 625 PAL, BT.1700 625 SECAM, IEC 61966-2-4 601
Audio
ID : 603 (0x25B)
Menu ID : 6 (0x6)
Format : MPEG Audio
Format version : Version 1
Format profile : Layer 2
Codec ID : 4
Duration : 38mn 40s
Bit rate mode : Constant
Bit rate : 128 Kbps
Maximum bit rate : 144 Kbps
Channel(s) : 2 channels
Sampling rate : 48.0 KHz
Compression mode : Lossy
Delay relative to video : 90ms
Stream size : 35.4 MiB (6%)
Language : Russian
Menu
ID : 601 (0x259)
Menu ID : 6 (0x6)
Duration : 38mn 41s
List : 602 (0x25A) (AVC) / 603 (0x25B) (MPEG Audio, Russian)
Language : / Russian
Maximum bit rate : 2486000

Скриншоты

[teatrix.ru].t16764.torrent 
Торрент: Зарегистрирован [ 2016-03-17 00:02 ] · EA727E13B878F5F714365DC29CA5CC57A72CADA3

Скачать .torrent

Скачать

12 KB

Статус: проверено
Скачан: 0 раз
Размер: 607 MB
terms.php



Быстрый ответ

Имя:

      
Для отправки сообщений необходимо включить JavaScript
Показать сообщения:    

Текущее время: 04-Дек 15:16

Часовой пояс: UTC + 3


Вы можете начинать темы
Вы можете отвечать на сообщения
Вы не можете редактировать свои сообщения
Вы не можете удалять свои сообщения
Вы не можете голосовать в опросах
Вы не можете прикреплять файлы к сообщениям
Вы можете скачивать файлы