ТЕМА с Дмитрием Менделеевым. Бодибилдеры (Андрей Чикирис) [1995, ток-шоу, VHSRip]


Статистика раздачи [Обновить пиров]
Размер:  582 MB   |    Зарегистрирован:  8 месяцев 17 дней   |    Скачан:  0 раз

Полного источника не было: Никогда

Личеров:  3  [  0 KB/s  ]   Подробная статистика пиров
 
   
 
 
 

[Цитировать]

ТЕМА с Дмитрием Менделеевым. Бодибилдеры
Год выпуска: 1995
Страна: Россия
Жанр: ток-шоу
Продолжительность: 00:38:04
Перевод: Не требуется
Русские субтитры: нет
Режиссер: Андрей Чикирис
Описание: Тема — одно из первых российских ток-шоу. Производилась телекомпанией ВИД (в 1992-94 годах — совместно со студией «Эксперимент»). В студии зрители и гости программы обсуждали актуальные проблемы современности, Ведут разговор о том, что интересно всем. Передача выходила в эфир на 1-м канале Останкино, сначала в пятницу с 31 января 1992 года на телеканале «ВИD представляет», а с 10 марта 1992 во вторник вечером в 21:45, а с 1 сентября 1992 — в 20:00. С 4 апреля 1995 года по сентябрь 1996 года выходила на ОРТ в 20:00 по вторникам, а с октября 1996 по 29 сентября 1998 в 20:00 по вторникам, а также в среду в 10:00, с 6 октября 1998 по октябрь 1999 в 19:15 до 2000 года. С 13 ноября 1999 по 4 марта 2000 года — в 15:10 и 17:20, по субботам.
Тема выпуска - революция тела. Время от времени многие мужчины подходят к зеркалу, расправляют плечи, втягивают живот, с грустью нащупывают жировую складку на боку и думают "Да, надо бы собой заняться с понедельника". Но проходит понедельник за понедельником, месяц за месяцем, год за годом, а благие намерения остаются лишь благими намерениями.
Гости в студии: спортсмен Александр Невский, артист экстрады и театра Ефим Шифрин, президент росийский федерации бодибилдинга Владимир Дубинин.
Доп. информация: Спасибо LeraDolphin за предоставленное видео.
http://teatrix.ru/viewtopic.php?t=16749 - 13 ранних выпусков 1995 года с ведущим Дмитрием Менделеевым, показанные на канале "Ретро".
Качество: VHSRip
Формат: AVI
Видео кодек: DivX
Аудио кодек: MP3
Видео: 704x512 (1.38:1), 25 fps, DivX Codec 5.1.1 ~2001 kbps avg, 0.22 bit/pixel
Аудио: 44.100 kHz, MPEG Layer 3, 2 ch, ~128.00 kbps avg

MI

Общее
Полное имя : G:\Разное\Torrent\Тема с Дмитрием Менделеевым. Бодибилдеры (1995).avi
Формат : AVI
Формат/Информация : Audio Video Interleave
Размер файла : 582 Мбайт
Продолжительность : 38 м.
Общий поток : 2138 Кбит/сек
Видео
Идентификатор : 0
Формат : MPEG-4 Visual
Параметр BVOP формата : 1
Параметр QPel формата : Нет
Параметр GMC формата : Без точки перехода
Параметр матрицы формата : Default (H.263)
Режим смешивания : Сжатый битовый поток
Идентификатор кодека : DX50
Идентификатор кодека/Подсказка : DivX 5
Продолжительность : 38 м.
Битрейт : 2001 Кбит/сек
Ширина : 704 пикселя
Высота : 512 пикселей
Соотношение сторон : 1,375
Частота кадров : 25,000 кадров/сек
Цветовое пространство : YUV
Субдискретизация насыщенности : 4:2:0
Битовая глубина : 8 бит
Тип развёртки : Прогрессивная
Метод сжатия : С потерями
Бит/(Пиксели*Кадры) : 0.222
Размер потока : 545 Мбайт (94%)
Библиотека кодирования : DivX 5.1.1 (Maupiti) (UTC 2003-11-19)
Аудио
Идентификатор : 1
Формат : MPEG Audio
Версия формата : Version 1
Профиль формата : Layer 3
Идентификатор кодека : 55
Идентификатор кодека/Подсказка : MP3
Продолжительность : 38 м.
Продолжительность оригинала : 38 м.
Вид битрейта : Постоянный
Битрейт : 128 Кбит/сек
Каналы : 2 канала
Частота : 44,1 КГц
Метод сжатия : С потерями
Размер потока : 34,8 Мбайт (6%)
Выравнивание : Разделение по промежуткам
Продолжительность промежутка : 40 мс. (1,00 видеокадр)
Время предзагрузки промежутка : 500 мс.

Скриншоты и скринлист

[teatrix.ru].t16765.torrent 
Торрент: Зарегистрирован [ 2016-03-17 00:04 ] · 31E28D016DC8CE115F5EDE7E13A3EFFDABA05927

Скачать .torrent

Скачать

12 KB

Статус: проверено
Скачан: 0 раз
Размер: 582 MB
terms.php



Показать сообщения:    

Текущее время: 03-Дек 22:42

Часовой пояс: UTC + 3


Вы не можете начинать темы
Вы не можете отвечать на сообщения
Вы не можете редактировать свои сообщения
Вы не можете удалять свои сообщения
Вы не можете голосовать в опросах
Вы не можете прикреплять файлы к сообщениям
Вы можете скачивать файлы