Пряничный домик / Стеклодувы (Марина Исаева) [2012, Документальный, DVB]


Статистика раздачи [Обновить пиров]
Размер:  419 MB   |    Зарегистрирован:  8 месяцев 24 дня   |    Скачан:  0 раз

Полного источника не было: Никогда

Личеров:  3  [  0 KB/s  ]   Подробная статистика пиров
 
   
 
 
 

[Цитировать]

Пряничный домик / Стеклодувы
Год выпуска: 2012
Страна: Россия, ТК "Культура"
Жанр: Документальный
Продолжительность: 00:26:25
Перевод: Не требуется
Русские субтитры: нет
Режиссер: Марина Исаева
Описание: Фильм о российских стеклодувах, удивляющих мир своим мастерством, о свойствах стекла - единственного материала на земле, который, в буквальном смысле слова, согрет дыханием человека. Зрители познакомятся со всеми этапами стеклодувного производства, увидят изделия стеклодувов знаменитого Дятьковского завода, в том числе, хрустальное ружье и единственный в мире хрустальный иконостас, который называют восьмым чудом света. Мастера-стеклодувы фабрики елочных игрушек "Иней" покажут, как выдуваются шары и самое сложное - елочная верхушка. Мастер-класс дают: мастер-стеклодув фабрики елочных игрушек "Иней" Светлана Лопатенкова и мастер-стеклодув Дятьковского хрустального завода Игорь Кавалеров.
Доп. информация: Пряничный домик - цикл документальных программ, который открывает зрителю мир традиционных народных искусств и ремесел, рассказывает об их особенностях, исконных и современных чертах.
Качество: DVB
Формат: TS
Видео кодек: H.264
Аудио кодек: MP2
Видео: AVC (H264) 720x576 25.00fps 1 978 Kbps
Аудио: MPEG Audio Layer 2 48000Hz stereo 128 Kbps

MediaInfo

General
ID : 1 (0x1)
Complete name : G:\Торрент\Пряничный домик\Пряничный домик - Стеклодувы - 15 12 12\Пряничный домик - Стеклодувы - 15 12 12.ts
Format : MPEG-TS
File size : 419 MiB
Duration : 26mn 25s
Overall bit rate : 2 216 Kbps
Video
ID : 602 (0x25A)
Menu ID : 6 (0x6)
Format : AVC
Format/Info : Advanced Video Codec
Format version : Version 2
Format profile : Main@L3.0
Format settings, CABAC : Yes
Format settings, ReFrames : 4 frames
Codec ID : 27
Duration : 26mn 25s
Bit rate : 1 978 Kbps
Maximum bit rate : 2 169 Kbps
Width : 720 pixels
Height : 576 pixels
Display aspect ratio : 4:3
Frame rate : 25.000 fps
Standard : PAL
Color space : YUV
Chroma subsampling : 4:2:0
Bit depth : 8 bits
Scan type : Interlaced
Scan order : Top Field First
Bits/(Pixel*Frame) : 0.191
Stream size : 374 MiB (89%)
Color primaries : BT.470-6 System B, BT.470-6 System G, BT.601-6 625, BT.1358 625, BT.1700 625 PAL, BT.1700 625 SECAM
Transfer characteristics : BT.470-6 System B, BT.470-6 System G
Matrix coefficients : BT.470-6 System B, BT.470-6 System G, BT.601-6 625, BT.1358 625, BT.1700 625 PAL, BT.1700 625 SECAM, IEC 61966-2-4 601
Audio
ID : 603 (0x25B)
Menu ID : 6 (0x6)
Format : MPEG Audio
Format version : Version 1
Format profile : Layer 2
Codec ID : 4
Duration : 26mn 25s
Bit rate mode : Constant
Bit rate : 128 Kbps
Maximum bit rate : 144 Kbps
Channel(s) : 2 channels
Sampling rate : 48.0 KHz
Compression mode : Lossy
Delay relative to video : 42ms
Stream size : 24.2 MiB (6%)
Language : Russian
Menu
ID : 601 (0x259)
Menu ID : 6 (0x6)
Duration : 26mn 25s
List : 602 (0x25A) (AVC) / 603 (0x25B) (MPEG Audio, Russian)
Language : / Russian
Maximum bit rate : 2486000

Скриншоты

[teatrix.ru].t16769.torrent 
Торрент: Зарегистрирован [ 2016-03-17 00:03 ] · 64B05C9046A7000FA7F0E8251245487294355123

Скачать .torrent

Скачать

17 KB

Статус: проверено
Скачан: 0 раз
Размер: 419 MB
terms.php



Быстрый ответ

Имя:

      
Для отправки сообщений необходимо включить JavaScript
Показать сообщения:    

Текущее время: 10-Дек 21:32

Часовой пояс: UTC + 3


Вы можете начинать темы
Вы можете отвечать на сообщения
Вы не можете редактировать свои сообщения
Вы не можете удалять свои сообщения
Вы не можете голосовать в опросах
Вы не можете прикреплять файлы к сообщениям
Вы можете скачивать файлы