Поединки. Непридуманные легенды [2012, Документальный, DVB]


Статистика раздачи [Обновить пиров]
Размер:  843 MB   |    Зарегистрирован:  8 месяцев 20 дней   |    Скачан:  0 раз

Полного источника не было: Никогда

Личеров:  3  [  0 KB/s  ]   Подробная статистика пиров
 
   
 
 
 

[Цитировать]

Поединки. Непридуманные легенды
Год выпуска: 2012
Производство: ТРК ВС РФ «Звезда»
Жанр: Документальный
Продолжительность: 00:27:10
Перевод: Не требуется
Русские субтитры: нет
Описание: Документальный фильм, в котором актеры признаются, как непросто им было исполнять роли разведчиков в сериале «Поединки». А профессиональные разведчики вынесут свой вердикт, получилось ли у актеров стать правдоподобными.
В фильме участвуют: Юлия Галкина, Евгений Стычкин, Олег Тактаров, Юрий Беляев, Альгис Арлаускас, Валерий Сехпосов, Андрей Чубченко, а так же ветераны Службы Внешней разведки.

Качество: DVB
Формат: MPG
Видео кодек: MPEG2
Аудио кодек: MP2
Видео: MPEG2 Video 720x576 (4:3) 25.00fps Bit rate 4058Kbps Bits/(Pixel*Frame) 0.391
Аудио: MP2 48000Hz 2ch 192kbps

MediaInfo

General
Complete name : F:\torrent\Поединки. Непридуманные легенды .mpg
Format : MPEG-PS
File size : 843 MiB
Duration : 27mn 10s
Overall bit rate : 4 336 Kbps
Writing library : (c) 1998-2012 Womble Multimedia, Inc. / MPEG Video Wizard DVD 5.0.1.100 (03/2011) / Sep 7 2012
Video
ID : 224 (0xE0)
Format : MPEG Video
Format version : Version 2
Format profile : Main@Main
Format settings, BVOP : No
Format settings, Matrix : Custom
Duration : 27mn 10s
Bit rate mode : Variable
Bit rate : 4 058 Kbps
Maximum bit rate : 15.0 Mbps
Width : 720 pixels
Height : 576 pixels
Display aspect ratio : 4:3
Frame rate : 25.000 fps
Standard : PAL
Color space : YUV
Chroma subsampling : 4:2:0
Bit depth : 8 bits
Compression mode : Lossy
Bits/(Pixel*Frame) : 0.391
Stream size : 789 MiB (94%)
Writing library : (c) 1998-2012 Womble Multimedia, Inc. / MPEG Video Wizard DVD 5.0.1.100 (03/2011) / Sep 7 2012
Audio
ID : 192 (0xC0)
Format : MPEG Audio
Format version : Version 1
Format profile : Layer 2
Duration : 27mn 10s
Bit rate mode : Constant
Bit rate : 192 Kbps
Channel(s) : 2 channels
Sampling rate : 48.0 KHz
Compression mode : Lossy
Stream size : 37.3 MiB (4%)

Скриншоты

[teatrix.ru].t16771.torrent 
Торрент: Зарегистрирован [ 2016-03-17 00:03 ] · 0AA9229F5EB9724E441A2DBFBDCD490B1799E321

Скачать .torrent

Скачать

17 KB

Статус: проверено
Скачан: 0 раз
Размер: 843 MB
terms.php



Показать сообщения:    

Текущее время: 06-Дек 18:57

Часовой пояс: UTC + 3


Вы не можете начинать темы
Вы не можете отвечать на сообщения
Вы не можете редактировать свои сообщения
Вы не можете удалять свои сообщения
Вы не можете голосовать в опросах
Вы не можете прикреплять файлы к сообщениям
Вы можете скачивать файлы